[更早] [欧美] [其他] [BD-Remux] 危险情人 Shoot.Out.1971.1080p.BluRay.REMUX.AVC.DTS-HD.MA.2.0-FGT 13.09GB

uump4 7月前 357

帖子完整标题:危险情人 Shoot.Out.1971.1080p.BluRay.REMUX.AVC.DTS-HD.MA.2.0-FGT 13.09GB


悠悠MP4_MP4电影下载_危险情人 Shoot.Out.1971.1080p.BluRay.REMUX.AVC.DTS-HD.MA.2.0-FGT 13.09GB

◎译  名 危险情人 / Abrechnung in Gun Hill
◎片  名 Shoot Out
◎年  代 1971
◎产  地 美国
◎类  别 西部
◎语  言 英语
◎上映日期 1971-08-16
◎IMDb评分  6.2/10 from 1407 users
◎IMDb链接  https://www.imdb.com/title/tt0067750
◎豆瓣评分 0/10 from 0 users
◎豆瓣链接 https://movie.douban.com/subject/1295110/
◎片  长 95 分钟
◎导  演 亨利·哈撒韦 Henry Hathaway
◎编  剧 Marguerite Roberts / Will James
◎主  演 格利高里·派克 Gregory Peck
       帕特里夏·奎因 Patricia Quinn
       罗伯特·F·莱昂斯 Robert F. Lyons
       苏珊·泰瑞尔 Susan Tyrrell
       杰夫·科里 Jeff Corey
       詹姆斯·格雷戈里 James Gregory


◎标  签 美国 | 美国电影 | 西部片 | 爱情 | 西部 | 经典老片 | 简单爱 | 喜剧

◎简  介  

  A former bank robber searches for his double crossing partner who left him for dead, while having to look after a 6 year old girl.

Video
ID                                       : 1
Format                                   : AVC
Format/Info                              : Advanced Video Codec
Format profile                           : [email protected]
Format settings                          : CABAC / 3 Ref Frames
Format settings, CABAC                   : Yes
Format settings, Reference frames        : 3 frames
Codec ID                                 : V_MPEG4/ISO/AVC
Duration                                 : 1 h 34 min
Bit rate mode                            : Variable
Bit rate                                 : 18.0 Mb/s
Maximum bit rate                         : 38.0 Mb/s
Width                                    : 1 920 pixels
Height                                   : 1 080 pixels
Display aspect ratio                     : 16:9
Frame rate mode                          : Constant
Frame rate                               : 23.976 (24000/1001) FPS
Color space                              : YUV
Chroma subsampling                       : 4:2:0
Bit depth                                : 8 bits
Scan type                                : Progressive
Bits/(Pixel*Frame)                       : 0.362
Stream size                              : 11.9 GiB (91%)
Title                                    : Shoot.Out.1971.1080p.BluRay.REMUX.AVC.DTS-HD.MA.2.0-FGT
Language                                 : English
Default                                  : No
Forced                                   : No
Color range                              : Limited
Color primaries                          : BT.709
Transfer characteristics                 : BT.709
Matrix coefficients                      : BT.709

Audio
ID                                       : 2
Format                                   : DTS XLL
Format/Info                              : Digital Theater Systems
Commercial name                          : DTS-HD Master Audio
Codec ID                                 : A_DTS
Duration                                 : 1 h 34 min
Bit rate mode                            : Variable
Bit rate                                 : 1 830 kb/s
Channel(s)                               : 2 channels
Channel layout                           : L R
Sampling rate                            : 48.0 kHz
Frame rate                               : 93.750 FPS (512 SPF)
Bit depth                                : 24 bits
Compression mode                         : Lossless
Stream size                              : 1.21 GiB (9%)
Title                                    : Shoot.Out.1971.1080p.BluRay.REMUX.AVC.DTS-HD.MA.2.0-FGT
Language                                 : English
Default                                  : Yes
Forced                                   : No

Text
ID                                       : 3
Format                                   : PGS
Muxing mode                              : zlib
Codec ID                                 : S_HDMV/PGS
Codec ID/Info                            : Picture based subtitle format used on BDs/HD-DVDs
Duration                                 : 1 h 31 min
Bit rate                                 : 28.4 kb/s
Count of elements                        : 1410
Stream size                              : 18.7 MiB (0%)
Title                                    : English-PGS
Language                                 : English
Default                                  : Yes
Forced                                   : No

Menu
00:00:00.000                             : en:Chapter 01
00:01:55.824                             : en:Chapter 02
00:07:11.472                             : en:Chapter 03
00:15:39.813                             : en:Chapter 04
00:22:12.372                             : en:Chapter 05
00:30:13.394                             : en:Chapter 06
00:35:19.450                             : en:Chapter 07
00:38:43.863                             : en:Chapter 08
00:49:02.773                             : en:Chapter 09
00:58:35.720                             : en:Chapter 10
01:04:48.926                             : en:Chapter 11
01:10:21.717                             : en:Chapter 12
01:16:16.029                             : en:Chapter 13
01:21:33.138                             : en:Chapter 14
01:24:33.818                             : en:Chapter 15
01:33:39.655                             : en:Chapter 16


悠悠MP4_MP4电影下载_危险情人 Shoot.Out.1971.1080p.BluRay.REMUX.AVC.DTS-HD.MA.2.0-FGT 13.09GB悠悠MP4_MP4电影下载_危险情人 Shoot.Out.1971.1080p.BluRay.REMUX.AVC.DTS-HD.MA.2.0-FGT 13.09GB悠悠MP4_MP4电影下载_危险情人 Shoot.Out.1971.1080p.BluRay.REMUX.AVC.DTS-HD.MA.2.0-FGT 13.09GB


提示:如迅雷下载提示"任务出错"、"因版权无法下载",请尝试【迅雷5】
上传的附件:
最新回复 (0)
返回
本站所有资源均收集自互联网,没有提供影片资源存储, 也未参与录制、上传,若本站收录的资源无意侵犯了您的权益, 请联系邮箱:gogoimgs#gmail.com(#=@)