[2018] [欧美] [剧情] [BD-Remux] 群山 The.Mountain.2018.1080p.BluRay.REMUX.AVC.DTS-HD.MA.5.1-FGT 30.49GB

uump4 8天前 173

帖子完整标题:群山 The.Mountain.2018.1080p.BluRay.REMUX.AVC.DTS-HD.MA.5.1-FGT 30.49GB


悠悠MP4_MP4电影下载_群山 The.Mountain.2018.1080p.BluRay.REMUX.AVC.DTS-HD.MA.5.1-FGT 30.49GB

◎译  名 群山
◎片  名 The Mountain
◎年  代 2018
◎产  地 美国
◎类  别 剧情
◎语  言 英语
◎上映日期 2018-08-30(威尼斯电影节)
◎IMDb评分  5.6/10 from 954 users
◎IMDb链接  https://www.imdb.com/title/tt7950334
◎豆瓣评分 5.9/10 from 167 users
◎豆瓣链接 https://movie.douban.com/subject/30149810/
◎片  长 106分钟
◎导  演 瑞克·艾弗森 Rick Alverson
◎编  剧 瑞克·艾弗森 Rick Alverson / Dustin Guy Defa / 科姆·奥利里 Colm O'Leary
◎主  演 泰伊·谢里丹 Tye Sheridan
       杰夫·高布伦 Jeff Goldblum
       汉娜·格罗斯 Hannah Gross
       德尼·拉旺 Denis Lavant
       乌多·基尔 Udo Kier
       安玛丽·劳莱丝 Annemarie Lawless
       艾米·斯蒂勒 Amy Stiller
       拉瑞·凡斯登 Larry Fessenden
       维尼·考克斯 Veanne Cox
       巴迪·杜瑞斯 Buddy Duress
       苏珊·阿瑟 Susan Aser
       丹妮尔·史密斯 Danielle Smith


◎标  签 美国 | 2018 | 剧情 | 威尼斯电影节 | 瑞克·艾弗森 | 实验 | 杰夫·高布伦 | Sheridan

◎简  介  

  一位年轻男子在失去母亲后,与一名专门从事切除术和治疗的医生一起工作的故事。

◎获奖情况  

  第75届威尼斯电影节(2018)
  主竞赛单元 金狮奖 (提名) 瑞克·艾弗森

Video
ID                                       : 1
Format                                   : AVC
Format/Info                              : Advanced Video Codec
Format profile                           : [email protected]
Format settings                          : CABAC / 4 Ref Frames
Format settings, CABAC                   : Yes
Format settings, Reference frames        : 4 frames
Codec ID                                 : V_MPEG4/ISO/AVC
Duration                                 : 1 h 49 min
Bit rate mode                            : Variable
Bit rate                                 : 33.1 Mb/s
Maximum bit rate                         : 35.0 Mb/s
Width                                    : 1 920 pixels
Height                                   : 1 080 pixels
Display aspect ratio                     : 16:9
Frame rate mode                          : Constant
Frame rate                               : 23.976 (24000/1001) FPS
Color space                              : YUV
Chroma subsampling                       : 4:2:0
Bit depth                                : 8 bits
Scan type                                : Progressive
Bits/(Pixel*Frame)                       : 0.665
Stream size                              : 25.2 GiB (83%)
Title                                    : The.Mountain.2018.1080p.BluRay.REMUX.AVC.DTS-HD.MA.5.1-FGT
Language                                 : English
Default                                  : No
Forced                                   : No

Audio #1
ID                                       : 2
Format                                   : DTS XLL
Format/Info                              : Digital Theater Systems
Commercial name                          : DTS-HD Master Audio
Codec ID                                 : A_DTS
Duration                                 : 1 h 49 min
Bit rate mode                            : Variable
Bit rate                                 : 2 874 kb/s
Channel(s)                               : 6 channels
Channel layout                           : C L R Ls Rs LFE
Sampling rate                            : 48.0 kHz
Frame rate                               : 93.750 FPS (512 SPF)
Bit depth                                : 24 bits
Compression mode                         : Lossless
Stream size                              : 2.19 GiB (7%)
Title                                    : The.Mountain.2018.1080p.BluRay.REMUX.AVC.DTS-HD.MA.5.1-FGT
Language                                 : English
Default                                  : Yes
Forced                                   : No

Audio #2
ID                                       : 3
Format                                   : DTS XLL
Format/Info                              : Digital Theater Systems
Commercial name                          : DTS-HD Master Audio
Codec ID                                 : A_DTS
Duration                                 : 1 h 49 min
Bit rate mode                            : Variable
Bit rate                                 : 1 985 kb/s
Channel(s)                               : 2 channels
Channel layout                           : L R
Sampling rate                            : 48.0 kHz
Frame rate                               : 93.750 FPS (512 SPF)
Bit depth                                : 24 bits
Compression mode                         : Lossless
Stream size                              : 1.52 GiB (5%)
Title                                    : The.Mountain.2018.1080p.BluRay.REMUX.AVC.DTS-HD.MA.5.1-FGT
Language                                 : English
Default                                  : No
Forced                                   : No

Audio #3
ID                                       : 4
Format                                   : DTS XLL
Format/Info                              : Digital Theater Systems
Commercial name                          : DTS-HD Master Audio
Codec ID                                 : A_DTS
Duration                                 : 1 h 49 min
Bit rate mode                            : Variable
Bit rate                                 : 1 992 kb/s
Channel(s)                               : 2 channels
Channel layout                           : L R
Sampling rate                            : 48.0 kHz
Frame rate                               : 93.750 FPS (512 SPF)
Bit depth                                : 24 bits
Compression mode                         : Lossless
Stream size                              : 1.52 GiB (5%)
Title                                    : The.Mountain.2018.1080p.BluRay.REMUX.AVC.DTS-HD.MA.5.1-FGT
Language                                 : English
Default                                  : No
Forced                                   : No

Text #1
ID                                       : 5
Format                                   : UTF-8
Codec ID                                 : S_TEXT/UTF8
Codec ID/Info                            : UTF-8 Plain Text
Duration                                 : 1 h 44 min
Bit rate                                 : 13 b/s
Count of elements                        : 421
Stream size                              : 10.1 KiB (0%)
Title                                    : English-SRT
Language                                 : English
Default                                  : Yes
Forced                                   : No

Text #2
ID                                       : 6
Format                                   : UTF-8
Codec ID                                 : S_TEXT/UTF8
Codec ID/Info                            : UTF-8 Plain Text
Duration                                 : 1 h 46 min
Bit rate                                 : 20 b/s
Count of elements                        : 917
Stream size                              : 16.1 KiB (0%)
Title                                    : English-SDH-SRT
Language                                 : English
Default                                  : No
Forced                                   : No

Text #3
ID                                       : 7
Format                                   : PGS
Muxing mode                              : zlib
Codec ID                                 : S_HDMV/PGS
Codec ID/Info                            : Picture based subtitle format used on BDs/HD-DVDs
Duration                                 : 1 h 48 min
Bit rate                                 : 24.7 kb/s
Count of elements                        : 1834
Stream size                              : 19.2 MiB (0%)
Title                                    : English-PGS
Language                                 : English
Default                                  : No
Forced                                   : No

Text #4
ID                                       : 8
Format                                   : PGS
Muxing mode                              : zlib
Codec ID                                 : S_HDMV/PGS
Codec ID/Info                            : Picture based subtitle format used on BDs/HD-DVDs
Duration                                 : 1 h 36 min
Bit rate                                 : 15.5 kb/s
Count of elements                        : 820
Stream size                              : 10.7 MiB (0%)
Title                                    : French-PGS
Language                                 : French
Default                                  : No
Forced                                   : No

Menu
00:00:00.000                             : en:Chapter 01
00:10:24.498                             : en:Chapter 02
00:22:10.203                             : en:Chapter 03
00:33:55.700                             : en:Chapter 04
00:44:02.431                             : en:Chapter 05
00:57:08.591                             : en:Chapter 06
01:09:25.244                             : en:Chapter 07
01:21:22.878                             : en:Chapter 08
01:31:21.517                             : en:Chapter 09
01:39:22.748                             : en:Chapter 10
01:49:16.550                             : en:Chapter 11


悠悠MP4_MP4电影下载_群山 The.Mountain.2018.1080p.BluRay.REMUX.AVC.DTS-HD.MA.5.1-FGT 30.49GB悠悠MP4_MP4电影下载_群山 The.Mountain.2018.1080p.BluRay.REMUX.AVC.DTS-HD.MA.5.1-FGT 30.49GB悠悠MP4_MP4电影下载_群山 The.Mountain.2018.1080p.BluRay.REMUX.AVC.DTS-HD.MA.5.1-FGT 30.49GB


提示:如迅雷下载提示"任务出错"、"因版权无法下载",请尝试【迅雷5】
上传的附件:
最新回复 (0)
返回
本站所有资源均收集自互联网,没有提供影片资源存储, 也未参与录制、上传,若本站收录的资源无意侵犯了您的权益, 请联系邮箱:gogoimgs#gmail.com(#=@)