[2019] [欧美] [惊悚] [BD-1080P] 丹尼尔不是真的/丹尼尔不是真实的 Daniel.Isnt.Real.2019.1080p.BluRay.x264-CADAVER 7.64GB

uump4 8天前 61

帖子完整标题:丹尼尔不是真的/丹尼尔不是真实的 Daniel.Isnt.Real.2019.1080p.BluRay.x264-CADAVER 7.64GB


悠悠MP4_MP4电影下载_丹尼尔不是真的/丹尼尔不是真实的 Daniel.Isnt.Real.2019.1080p.BluRay.x264-CADAVER 7.64GB

◎译  名 丹尼尔不是真的 / 丹尼尔不是真实的 / 鬼相伴
◎片  名 Daniel Isn't Real
◎年  代 2019
◎产  地 美国
◎类  别 惊悚 / 恐怖
◎语  言 英语
◎上映日期 2019-03-09(美国西南偏南电影节) / 2019-12-06(美国)
◎IMDb评分  6.0/10 from 1831 users
◎IMDb链接  https://www.imdb.com/title/tt8745960
◎豆瓣评分 5.4/10 from 188 users
◎豆瓣链接 https://movie.douban.com/subject/30282897/
◎片  长 96分钟
◎导  演 Adam Egypt Mortimer
◎编  剧 Brian DeLeeuw / Adam Egypt Mortimer
◎主  演 帕特里克·施瓦辛格 Patrick Schwarzenegger
       迈尔斯·罗宾斯 Miles Robbins
       萨莎·莱恩 Sasha Lane
       玛丽·斯图尔特·马斯特森 Mary Stuart Masterson
       汉娜·马克斯 Hannah Marks
       凯蒂·张 Katie Chang
       Michael Cuomo
       格里芬·罗伯特·福克纳 Griffin Robert Faulkner
       杰奎琳·霍努力克 Jacqueline Honulik
       Chukwudi Iwuji
       Andrew Bridges
       费斯·洛根 Faith Logan
       Andrew Ayala
       Jamar Greene
       Rosanne Ma


◎标  签 2019 | 美国 | 惊悚 | 恐怖 | 迷幻 | 超自然 | 美国电影 | 犯罪

◎简  介  

  阿诺·施瓦辛格之子帕特里克·施瓦辛格、萨莎·莱恩([美国甜心])、蒂姆·罗宾斯之子迈尔斯·罗宾斯、汉娜·马克斯(《全能侦探社》)将主演惊悚片[丹尼尔不是真实的](Daniel Isn’t Real,暂译),影片由亚当·埃及·莫蒂默(Adam Egypt Mortimer)([复仇之灵])执导。故事根据布莱恩·德莱乌创作小说《我被这样拯救》(In This Way I Was Saved)改编,德莱乌与莫蒂默共同操刀剧本。讲述一个遭受家庭暴力创伤的大学新生,再次构想了他童年想象中的朋友丹尼尔。丹尼尔能够帮助他应对一切。该片已在纽约开拍。

Video
ID                                       : 1
Format                                   : AVC
Format/Info                              : Advanced Video Codec
Format profile                           : [email protected]
Format settings                          : CABAC / 5 Ref Frames
Format settings, CABAC                   : Yes
Format settings, Reference frames        : 5 frames
Codec ID                                 : V_MPEG4/ISO/AVC
Duration                                 : 1 h 40 min
Bit rate                                 : 9 408 kb/s
Width                                    : 1 920 pixels
Height                                   : 808 pixels
Display aspect ratio                     : 2.40:1
Frame rate mode                          : Constant
Frame rate                               : 23.976 (24000/1001) FPS
Color space                              : YUV
Chroma subsampling                       : 4:2:0
Bit depth                                : 8 bits
Scan type                                : Progressive
Bits/(Pixel*Frame)                       : 0.253
Stream size                              : 6.57 GiB (86%)
Writing library                          : x264 core 159 r2991 1771b55
Encoding settings                        : cabac=1 / ref=5 / deblock=1:-3:-3 / analyse=0x3:0x133 / me=umh / subme=9 / psy=1 / psy_rd=1.00:0.00 / mixed_ref=1 / me_range=24 / chroma_me=1 / trellis=1 / 8x8dct=1 / cqm=0 / deadzone=21,11 / fast_pskip=0 / chroma_qp_offset=-2 / threads=6 / lookahead_threads=1 / sliced_threads=0 / nr=0 / decimate=1 / interlaced=0 / bluray_compat=0 / constrained_intra=0 / bframes=8 / b_pyramid=2 / b_adapt=2 / b_bias=0 / direct=3 / weightb=1 / open_gop=0 / weightp=2 / keyint=250 / keyint_min=23 / scenecut=40 / intra_refresh=0 / rc_lookahead=60 / rc=2pass / mbtree=1 / bitrate=9408 / ratetol=1.0 / qcomp=0.60 / qpmin=0 / qpmax=69 / qpstep=4 / cplxblur=20.0 / qblur=0.5 / vbv_maxrate=62500 / vbv_bufsize=78125 / nal_hrd=none / filler=0 / ip_ratio=1.40 / aq=1:1.00
Default                                  : Yes
Forced                                   : No

Audio
ID                                       : 2
Format                                   : DTS
Format/Info                              : Digital Theater Systems
Codec ID                                 : A_DTS
Duration                                 : 1 h 40 min
Bit rate mode                            : Constant
Bit rate                                 : 1 509 kb/s
Channel(s)                               : 6 channels
Channel layout                           : C L R Ls Rs LFE
Sampling rate                            : 48.0 kHz
Frame rate                               : 93.750 FPS (512 SPF)
Bit depth                                : 24 bits
Compression mode                         : Lossy
Stream size                              : 1.06 GiB (14%)
Language                                 : English
Default                                  : Yes
Forced                                   : No

Menu
00:00:00.000                             : en:Chapter 01
00:01:33.440                             : en:Chapter 02
00:10:43.448                             : en:Chapter 03
00:20:23.736                             : en:Chapter 04
00:28:27.636                             : en:Chapter 05
00:35:04.073                             : en:Chapter 06
00:44:17.293                             : en:Chapter 07
00:53:22.421                             : en:Chapter 08
00:59:04.012                             : en:Chapter 09
01:05:54.005                             : en:Chapter 10
01:17:14.184                             : en:Chapter 11
01:26:10.262                             : en:Chapter 12


悠悠MP4_MP4电影下载_丹尼尔不是真的/丹尼尔不是真实的 Daniel.Isnt.Real.2019.1080p.BluRay.x264-CADAVER 7.64GB


提示:如迅雷下载提示"任务出错"、"因版权无法下载",请尝试【迅雷5】
上传的附件:
最新回复 (0)
返回
本站所有资源均收集自互联网,没有提供影片资源存储, 也未参与录制、上传,若本站收录的资源无意侵犯了您的权益, 请联系邮箱:gogoimgs#gmail.com(#=@)