[2010] [日本] [剧情] [WEB-1080P] 热血拳击 Box.2010.JAPANESE.1080p.WEBRip.x264-VXT 2.40GB

uump4 7月前 279

帖子完整标题:热血拳击 Box.2010.JAPANESE.1080p.WEBRip.x264-VXT 2.40GB


悠悠MP4_MP4电影下载_热血拳击 Box.2010.JAPANESE.1080p.WEBRip.x264-VXT 2.40GB

◎译  名 热血拳击 / Box!
◎片  名 ボックス!
◎年  代 2010
◎产  地 日本
◎类  别 剧情
◎语  言 日语
◎上映日期 2010-05-22(日本)
◎IMDb评分  6.7/10 from 73 users
◎IMDb链接  https://www.imdb.com/title/tt1564559
◎豆瓣评分 6.6/10 from 159 users
◎豆瓣链接 https://movie.douban.com/subject/4195747/
◎片  长 126分钟
◎导  演 李闘士男
◎编  剧 鈴木謙一
◎主  演 市原隼人
       高良健吾
       谷村美月
       清水美沙
       宝生舞
       山崎真実
       香椎由宇
       筧利夫


◎标  签 市原隼人 | 日本电影 | 高良健吾 | 日本 | 2010 | 日影 | 香椎由宇 | 谷村美月

◎简  介  

  元放送作家の百田尚樹による青春小説を、「デトロイト?メタル?シティ」の李闘士男監督が映画化。主演は市原隼人、高良健吾。高校のボクシング部に所属するカブ(市原)は、怠け者だが天才的なボクシングセンスを持っており、試合でも連戦連勝を収めていた。一方、カブの幼なじみで気弱な優等生のユウキ(高良)も、カブに憧れボクシングを始める。無敵を誇る天才ボクサーのカブと、地道に努力を重ねていくユウキは、やがて運命のライバルとなる。

Video
ID                                       : 1
Format                                   : AVC
Format/Info                              : Advanced Video Codec
Format profile                           : [email protected]
Format settings                          : CABAC / 4 Ref Frames
Format settings, CABAC                   : Yes
Format settings, Reference frames        : 4 frames
Codec ID                                 : avc1
Codec ID/Info                            : Advanced Video Coding
Duration                                 : 2 h 5 min
Bit rate                                 : 2 500 kb/s
Width                                    : 1 920 pixels
Height                                   : 1 040 pixels
Display aspect ratio                     : 1.85:1
Frame rate mode                          : Constant
Frame rate                               : 23.976 (23976/1000) FPS
Color space                              : YUV
Chroma subsampling                       : 4:2:0
Bit depth                                : 8 bits
Scan type                                : Progressive
Bits/(Pixel*Frame)                       : 0.052
Stream size                              : 2.20 GiB (92%)
Writing library                          : x264 core 152 r2851M ba24899
Encoding settings                        : cabac=1 / ref=4 / deblock=1:-1:-1 / analyse=0x3:0x113 / me=umh / subme=9 / psy=1 / psy_rd=1.00:0.15 / mixed_ref=1 / me_range=24 / chroma_me=1 / trellis=2 / 8x8dct=1 / cqm=0 / deadzone=21,11 / fast_pskip=1 / chroma_qp_offset=-3 / threads=16 / lookahead_threads=4 / sliced_threads=0 / nr=0 / decimate=1 / interlaced=0 / bluray_compat=0 / constrained_intra=0 / bframes=3 / b_pyramid=2 / b_adapt=2 / b_bias=0 / direct=3 / weightb=1 / open_gop=0 / weightp=2 / keyint=250 / keyint_min=25 / scenecut=40 / intra_refresh=0 / rc_lookahead=50 / rc=2pass / mbtree=1 / bitrate=2500 / ratetol=1.0 / qcomp=0.60 / qpmin=0 / qpmax=69 / qpstep=4 / cplxblur=20.0 / qblur=0.5 / vbv_maxrate=31250 / vbv_bufsize=31250 / nal_hrd=none / filler=0 / ip_ratio=1.40 / aq=3:1.00
Encoded date                             : UTC 2020-02-13 19:28:09
Tagged date                              : UTC 2020-02-13 19:28:09
Codec configuration box                  : avcC

Audio
ID                                       : 2
Format                                   : AAC LC
Format/Info                              : Advanced Audio Codec Low Complexity
Codec ID                                 : mp4a-40-2
Duration                                 : 2 h 5 min
Duration_LastFrame                       : -11 ms
Bit rate mode                            : Constant
Bit rate                                 : 224 kb/s
Channel(s)                               : 6 channels
Channel layout                           : C L R Ls Rs LFE
Sampling rate                            : 48.0 kHz
Frame rate                               : 46.875 FPS (1024 SPF)
Compression mode                         : Lossy
Stream size                              : 202 MiB (8%)
Language                                 : Japanese
Default                                  : Yes
Alternate group                          : 1
Encoded date                             : UTC 2020-02-13 19:28:09
Tagged date                              : UTC 2020-02-13 19:28:09


悠悠MP4_MP4电影下载_热血拳击 Box.2010.JAPANESE.1080p.WEBRip.x264-VXT 2.40GB悠悠MP4_MP4电影下载_热血拳击 Box.2010.JAPANESE.1080p.WEBRip.x264-VXT 2.40GB悠悠MP4_MP4电影下载_热血拳击 Box.2010.JAPANESE.1080p.WEBRip.x264-VXT 2.40GB


提示:如迅雷下载提示"任务出错"、"因版权无法下载",请尝试【迅雷5】
上传的附件:
最新回复 (0)
返回
本站所有资源均收集自互联网,没有提供影片资源存储, 也未参与录制、上传,若本站收录的资源无意侵犯了您的权益, 请联系邮箱:gogoimgs#gmail.com(#=@)