[2019] [欧美] [恐怖] [WEB-1080P] 午夜之后 After.Midnight.2019.1080p.AMZN.WEBRip.DDP5.1.x264-NTG 4.83GB

uump4 2天前 62

帖子完整标题:午夜之后 After.Midnight.2019.1080p.AMZN.WEBRip.DDP5.1.x264-NTG 4.83GB


悠悠MP4_MP4电影下载_午夜之后 After.Midnight.2019.1080p.AMZN.WEBRip.DDP5.1.x264-NTG 4.83GB

◎译  名 午夜之后 / Something Else / 别的东西
◎片  名 After Midnight
◎年  代 2019
◎产  地 美国
◎类  别 恐怖
◎语  言 英语
◎上映日期 2019-04-26(Tribeca Film Festival)
◎IMDb评分  6.2/10 from 224 users
◎IMDb链接  https://www.imdb.com/title/tt8358220
◎豆瓣评分 0/10 from 0 users
◎豆瓣链接 https://movie.douban.com/subject/33427061/
◎导  演 Jeremy Gardner / Christian Stella
◎编  剧 Jeremy Gardner
◎主  演 亨利·泽布罗夫斯基 Henry Zebrowski
       布瑞亚·格兰特 Brea Grant
       贾斯汀·本森 Justin Benson


◎标  签 美国电影 | 恐怖 | 贾斯汀·本森

◎简  介  

  When his long suffering girlfriend disappears suddenly, leaving a cryptic note as her only explanation, Hank's comfortable life and his sanity begin to crack. Then, from the woods surrounding his house, something terrible starts trying to break in.

Video
ID                                       : 1
Format                                   : AVC
Format/Info                              : Advanced Video Codec
Format profile                           : [email protected]
Format settings                          : CABAC / 4 Ref Frames
Format settings, CABAC                   : Yes
Format settings, Reference frames        : 4 frames
Codec ID                                 : V_MPEG4/ISO/AVC
Duration                                 : 1 h 23 min
Bit rate mode                            : Constant
Bit rate                                 : 7 671 kb/s
Nominal bit rate                         : 10 000 kb/s
Width                                    : 1 920 pixels
Height                                   : 800 pixels
Display aspect ratio                     : 2.40:1
Frame rate mode                          : Constant
Frame rate                               : 23.976 (24000/1001) FPS
Color space                              : YUV
Chroma subsampling                       : 4:2:0
Bit depth                                : 8 bits
Scan type                                : Progressive
Bits/(Pixel*Frame)                       : 0.208
Stream size                              : 4.46 GiB (92%)
Default                                  : Yes
Forced                                   : No
Color range                              : Limited
Color primaries                          : BT.709
Transfer characteristics                 : BT.709
Matrix coefficients                      : BT.709

Audio
ID                                       : 2
Format                                   : E-AC-3
Format/Info                              : Enhanced AC-3
Commercial name                          : Dolby Digital Plus
Codec ID                                 : A_EAC3
Duration                                 : 1 h 23 min
Bit rate mode                            : Constant
Bit rate                                 : 640 kb/s
Channel(s)                               : 6 channels
Channel layout                           : L R C LFE Ls Rs
Sampling rate                            : 48.0 kHz
Frame rate                               : 31.250 FPS (1536 SPF)
Compression mode                         : Lossy
Stream size                              : 381 MiB (8%)
Language                                 : English
Service kind                             : Complete Main
Default                                  : Yes
Forced                                   : No

Text #1
ID                                       : 3
Format                                   : UTF-8
Codec ID                                 : S_TEXT/UTF8
Codec ID/Info                            : UTF-8 Plain Text
Duration                                 : 1 h 22 min
Bit rate                                 : 51 b/s
Count of elements                        : 943
Stream size                              : 31.2 KiB (0%)
Language                                 : English
Default                                  : No
Forced                                   : No

Text #2
ID                                       : 4
Format                                   : UTF-8
Codec ID                                 : S_TEXT/UTF8
Codec ID/Info                            : UTF-8 Plain Text
Duration                                 : 1 h 22 min
Bit rate                                 : 54 b/s
Count of elements                        : 1014
Stream size                              : 33.0 KiB (0%)
Title                                    : SDH
Language                                 : English
Default                                  : No
Forced                                   : No


悠悠MP4_MP4电影下载_午夜之后 After.Midnight.2019.1080p.AMZN.WEBRip.DDP5.1.x264-NTG 4.83GB悠悠MP4_MP4电影下载_午夜之后 After.Midnight.2019.1080p.AMZN.WEBRip.DDP5.1.x264-NTG 4.83GB悠悠MP4_MP4电影下载_午夜之后 After.Midnight.2019.1080p.AMZN.WEBRip.DDP5.1.x264-NTG 4.83GB


提示:如迅雷下载提示"任务出错"、"因版权无法下载",请尝试【迅雷5】
上传的附件:
最新回复 (0)
返回
本站所有资源均收集自互联网,没有提供影片资源存储, 也未参与录制、上传,若本站收录的资源无意侵犯了您的权益, 请联系邮箱:gogoimgs#gmail.com(#=@)