[2019] [欧美] [剧情] [WEB-720P] 米奇和熊 Mickey.and.the.Bear.2019.720p.AMZN.WEBRip.DDP5.1.x264-NTG 3.22GB

uump4 2天前 75

帖子完整标题:米奇和熊 Mickey.and.the.Bear.2019.720p.AMZN.WEBRip.DDP5.1.x264-NTG 3.22GB


悠悠MP4_MP4电影下载_米奇和熊 Mickey.and.the.Bear.2019.720p.AMZN.WEBRip.DDP5.1.x264-NTG 3.22GB

◎译  名 米奇和熊
◎片  名 Mickey and the Bear
◎年  代 2019
◎产  地 美国
◎类  别 剧情
◎语  言 英语
◎上映日期 2019-03-09(西南偏南电影节) / 2019-11-13(美国)
◎IMDb评分  6.7/10 from 221 users
◎IMDb链接  https://www.imdb.com/title/tt9614440
◎豆瓣评分 0/10 from 0 users
◎豆瓣链接 https://movie.douban.com/subject/30486895/
◎片  长 88分钟
◎导  演 安娜贝尔·艾塔娜斯奥 Annabelle Attanasio
◎编  剧 安娜贝尔·艾塔娜斯奥 Annabelle Attanasio
◎主  演 卡米拉·莫罗 Camila Morrone
       詹姆斯·戴尔 James Badge Dale
       Calvin Demba
       本·罗森菲尔德 Ben Rosenfield
       瑞贝卡·亨德森 Rebecca Henderson


◎标  签 戛纳电影节 | 戛纳电影节72th | 【影评人周·ACID单元】 | #FestivalDeCannes72th# | 美国电影 | 剧情

◎简  介  

  Faced with the responsibility to take care of her addict, veteran father, headstrong teen Mickey Peck keeps her household afloat. When she has the opportunity to leave for good, she must choose between familial obligation and personal fulfillment.

Video
ID                                       : 1
Format                                   : AVC
Format/Info                              : Advanced Video Codec
Format profile                           : [email protected]
Format settings                          : CABAC / 4 Ref Frames
Format settings, CABAC                   : Yes
Format settings, Reference frames        : 4 frames
Codec ID                                 : V_MPEG4/ISO/AVC
Duration                                 : 1 h 29 min
Bit rate mode                            : Constant
Bit rate                                 : 4 513 kb/s
Nominal bit rate                         : 6 000 kb/s
Width                                    : 1 280 pixels
Height                                   : 720 pixels
Display aspect ratio                     : 16:9
Frame rate mode                          : Constant
Frame rate                               : 23.976 (24000/1001) FPS
Color space                              : YUV
Chroma subsampling                       : 4:2:0
Bit depth                                : 8 bits
Scan type                                : Progressive
Bits/(Pixel*Frame)                       : 0.204
Stream size                              : 2.82 GiB (88%)
Default                                  : Yes
Forced                                   : No
Color range                              : Limited
Color primaries                          : BT.709
Transfer characteristics                 : BT.709
Matrix coefficients                      : BT.709

Audio
ID                                       : 2
Format                                   : E-AC-3
Format/Info                              : Enhanced AC-3
Commercial name                          : Dolby Digital Plus
Codec ID                                 : A_EAC3
Duration                                 : 1 h 29 min
Bit rate mode                            : Constant
Bit rate                                 : 640 kb/s
Channel(s)                               : 6 channels
Channel layout                           : L R C LFE Ls Rs
Sampling rate                            : 48.0 kHz
Frame rate                               : 31.250 FPS (1536 SPF)
Compression mode                         : Lossy
Stream size                              : 410 MiB (12%)
Language                                 : English
Service kind                             : Complete Main
Default                                  : Yes
Forced                                   : No

Text #1
ID                                       : 3
Format                                   : UTF-8
Codec ID                                 : S_TEXT/UTF8
Codec ID/Info                            : UTF-8 Plain Text
Duration                                 : 1 h 22 min
Bit rate                                 : 47 b/s
Count of elements                        : 984
Stream size                              : 28.5 KiB (0%)
Language                                 : English
Default                                  : No
Forced                                   : No

Text #2
ID                                       : 4
Format                                   : UTF-8
Codec ID                                 : S_TEXT/UTF8
Codec ID/Info                            : UTF-8 Plain Text
Duration                                 : 1 h 24 min
Bit rate                                 : 51 b/s
Count of elements                        : 1107
Stream size                              : 31.7 KiB (0%)
Title                                    : SDH
Language                                 : English
Default                                  : No
Forced                                   : No


悠悠MP4_MP4电影下载_米奇和熊 Mickey.and.the.Bear.2019.720p.AMZN.WEBRip.DDP5.1.x264-NTG 3.22GB悠悠MP4_MP4电影下载_米奇和熊 Mickey.and.the.Bear.2019.720p.AMZN.WEBRip.DDP5.1.x264-NTG 3.22GB悠悠MP4_MP4电影下载_米奇和熊 Mickey.and.the.Bear.2019.720p.AMZN.WEBRip.DDP5.1.x264-NTG 3.22GB


提示:如迅雷下载提示"任务出错"、"因版权无法下载",请尝试【迅雷5】
上传的附件:
最新回复 (0)
返回
本站所有资源均收集自互联网,没有提供影片资源存储, 也未参与录制、上传,若本站收录的资源无意侵犯了您的权益, 请联系邮箱:gogoimgs#gmail.com(#=@)