[2019] [其他] [剧情] [WEB-1080P] 陌生人的善意 The.Kindness.of.Strangers.2019.1080p.WEBRip.DD5.1.x264-CM 2.89GB

uump4 7月前 191

帖子完整标题:陌生人的善意 The.Kindness.of.Strangers.2019.1080p.WEBRip.DD5.1.x264-CM 2.89GB


悠悠MP4_MP4电影下载_陌生人的善意 The.Kindness.of.Strangers.2019.1080p.WEBRip.DD5.1.x264-CM 2.89GB

◎译  名 陌生人的善意 / New York Winter Palace / Secrets from the Russian Tea Room / 俄国茶室的秘密 / 陌生的善意
◎片  名 The Kindness of Strangers
◎年  代 2019
◎产  地 丹麦 / 加拿大 / 瑞典 / 法国 / 德国 / 英国
◎类  别 剧情 / 惊悚
◎语  言 英语
◎上映日期 2019-02-07(柏林电影节)
◎IMDb评分 5.5/10 from 231 users
◎IMDb链接 https://www.imdb.com/title/tt6515910
◎豆瓣评分 0/10 from 0 users
◎豆瓣链接 https://movie.douban.com/subject/26975019/
◎片  长 112分钟
◎导  演 罗勒·莎菲 Lone Scherfig
◎编  剧 罗勒·莎菲 Lone Scherfig
◎主  演 佐伊·卡赞 Zoe Kazan
      安德丽亚·瑞斯波罗格 Andrea Riseborough
      杰伊·巴鲁切尔 Jay Baruchel
      比尔·奈伊 Bill Nighy
      卡赖伯·兰德里·琼斯 Caleb Landry Jones
      塔哈·拉希姆 Tahar Rahim
      埃斯本·司米德·詹森 Esben Smed Jensen
      大卫·丹席克 David Dencik
      丹尼尔·卡什 Daniel Kash
      杰克·富尔顿 Jack Fulton
      金·罗伯特 Kim Roberts
      尼克莱·寇佩尼库斯 Nicolaj Kopernikus
      威尔·宝 Will Bowes
      马丁·巴赫 Martin Buch
      科拉·克劳泽 Kola Krauze
      古根·迪普·辛 Gugun Deep Singh
      泰勒·拉芙 Taylor Love
      克里斯·贝克 Chris Baker
      帕特·桑顿 Pat Thornton
      莎莉·谢巴德 Sally Shepard


◎标  签 2019 | 柏林电影节 | 丹麦 | 惊悚 | 剧情 | 加拿大 | Zoe_Kazan | kino

◎简  介

  比尔·奈伊、卡赖伯·兰德里·琼斯、杰伊·巴鲁切尔加盟罗勒·莎菲未定名新片。此前确认出演的卡司有安德丽亚·瑞斯波罗格、塔哈·拉希姆、佐伊·卡赞。本片讲述在纽约一家俄罗斯餐馆里,人们在彼此生活中穿梭的现代童话故事。奈伊饰演餐馆老板的孙子Timofey;兰德里饰演正在找工作的年轻人Jeff;巴鲁切尔饰演道德高尚但自卑的律师John Peter。该片将于3月23日多伦多开拍,之后还会在哥本哈根和纽约取景。

◎获奖情况

  第69届柏林国际电影节(2019)
  金熊奖(提名) 罗勒·莎菲
Video
ID : 1
Format : AVC
Format/Info : Advanced Video Codec
Format profile : [email protected]
Format settings : CABAC / 2 Ref Frames
Format settings, CABAC : Yes
Format settings, Reference frames : 2 frames
Codec ID : V_MPEG4/ISO/AVC
Duration : 1 h 54 min
Bit rate : 3 217 kb/s
Width : 1 920 pixels
Height : 1 080 pixels
Display aspect ratio : 16:9
Frame rate mode : Constant
Frame rate : 23.976 (24000/1001) FPS
Color space : YUV
Chroma subsampling : 4:2:0
Bit depth : 8 bits
Scan type : Progressive
Bits/(Pixel*Frame) : 0.065
Stream size : 2.58 GiB (89%)
Writing library : x264 core 155 r2901 7d0ff22
Language : English
Default : Yes
Forced : No
Color range : Limited
Color primaries : BT.709
Transfer characteristics : BT.709
Matrix coefficients : BT.709

Audio
ID : 2
Format : AC-3
Format/Info : Audio Coding 3
Commercial name : Dolby Digital
Codec ID : A_AC3
Duration : 1 h 54 min
Bit rate mode : Constant
Bit rate : 384 kb/s
Channel(s) : 6 channels
Channel layout : L R C LFE Ls Rs
Sampling rate : 48.0 kHz
Frame rate : 31.250 FPS (1536 SPF)
Bit depth : 16 bits
Compression mode : Lossy
Stream size : 315 MiB (11%)
Language : English
Service kind : Complete Main
Default : Yes
Forced : No

Text
ID : 3
Format : UTF-8
Codec ID : S_TEXT/UTF8
Codec ID/Info : UTF-8 Plain Text
Duration : 1 h 46 min
Bit rate : 50 b/s
Count of elements : 1479
Stream size : 39.4 KiB (0%)
Language : English
Default : Yes
Forced : No

悠悠MP4_MP4电影下载_陌生人的善意 The.Kindness.of.Strangers.2019.1080p.WEBRip.DD5.1.x264-CM 2.89GB悠悠MP4_MP4电影下载_陌生人的善意 The.Kindness.of.Strangers.2019.1080p.WEBRip.DD5.1.x264-CM 2.89GB悠悠MP4_MP4电影下载_陌生人的善意 The.Kindness.of.Strangers.2019.1080p.WEBRip.DD5.1.x264-CM 2.89GB


提示:如迅雷下载提示"任务出错"、"因版权无法下载",请尝试【迅雷5】
上传的附件:
最新回复 (0)
返回
本站所有资源均收集自互联网,没有提供影片资源存储, 也未参与录制、上传,若本站收录的资源无意侵犯了您的权益, 请联系邮箱:gogoimgs#gmail.com(#=@)