[更早] [欧美] [喜剧] [WEB-720P] 间谍干涉/间谍本色 Spy.Intervention.2020.720p.AMZN.WEBRip.DDP5.1.x264-NTG 2.36GB

uump4 10天前 135

帖子完整标题:间谍干涉/间谍本色 Spy.Intervention.2020.720p.AMZN.WEBRip.DDP5.1.x264-NTG 2.36GB


悠悠MP4_MP4电影下载_间谍干涉/间谍本色 Spy.Intervention.2020.720p.AMZN.WEBRip.DDP5.1.x264-NTG 2.36GB

◎译  名 间谍干涉 / 间谍本色
◎片  名 Spy Intervention
◎年  代 2020
◎产  地 英国
◎类  别 喜剧 / 动作
◎语  言 英语
◎上映日期 2020(英国)
◎IMDb链接  https://www.imdb.com/title/tt7369550
◎豆瓣评分 0/10 from 0 users
◎豆瓣链接 https://movie.douban.com/subject/30140658/
◎导  演 Drew Mylrea
◎主  演 波比·迪瓦伊 Poppy Delevingne
       戴夫·谢里登 Dave Sheridan
       德鲁·凡·阿克尔 Drew Van Acker


◎简  介  

  一个超级间谍突然遇到了自己真爱的女人。为了真爱,他放弃了自己的职业和冒险的生活。1年之后,他完全颓废了。他的老同行计划让老同事重新找回超级间谍的感觉。

Video
ID                                       : 1
Format                                   : AVC
Format/Info                              : Advanced Video Codec
Format profile                           : [email protected]
Format settings                          : CABAC / 4 Ref Frames
Format settings, CABAC                   : Yes
Format settings, Reference frames        : 4 frames
Codec ID                                 : V_MPEG4/ISO/AVC
Duration                                 : 1 h 32 min
Bit rate mode                            : Constant
Bit rate                                 : 2 999 kb/s
Nominal bit rate                         : 6 000 kb/s
Width                                    : 1 280 pixels
Height                                   : 720 pixels
Display aspect ratio                     : 16:9
Frame rate mode                          : Constant
Frame rate                               : 23.976 (24000/1001) FPS
Color space                              : YUV
Chroma subsampling                       : 4:2:0
Bit depth                                : 8 bits
Scan type                                : Progressive
Bits/(Pixel*Frame)                       : 0.136
Stream size                              : 1.94 GiB (82%)
Default                                  : Yes
Forced                                   : No
Color range                              : Limited
Color primaries                          : BT.709
Transfer characteristics                 : BT.709
Matrix coefficients                      : BT.709

Audio
ID                                       : 2
Format                                   : E-AC-3
Format/Info                              : Enhanced AC-3
Commercial name                          : Dolby Digital Plus
Codec ID                                 : A_EAC3
Duration                                 : 1 h 32 min
Bit rate mode                            : Constant
Bit rate                                 : 640 kb/s
Channel(s)                               : 6 channels
Channel layout                           : L R C LFE Ls Rs
Sampling rate                            : 48.0 kHz
Frame rate                               : 31.250 FPS (1536 SPF)
Compression mode                         : Lossy
Stream size                              : 424 MiB (18%)
Language                                 : English
Service kind                             : Complete Main
Default                                  : Yes
Forced                                   : No

Text #1
ID                                       : 3
Format                                   : UTF-8
Codec ID                                 : S_TEXT/UTF8
Codec ID/Info                            : UTF-8 Plain Text
Duration                                 : 1 h 30 min
Bit rate                                 : 81 b/s
Count of elements                        : 1793
Stream size                              : 53.8 KiB (0%)
Language                                 : English
Default                                  : No
Forced                                   : No

Text #2
ID                                       : 4
Format                                   : UTF-8
Codec ID                                 : S_TEXT/UTF8
Codec ID/Info                            : UTF-8 Plain Text
Duration                                 : 1 h 31 min
Bit rate                                 : 88 b/s
Count of elements                        : 1989
Stream size                              : 59.1 KiB (0%)
Title                                    : SDH
Language                                 : English
Default                                  : No
Forced                                   : No


悠悠MP4_MP4电影下载_间谍干涉/间谍本色 Spy.Intervention.2020.720p.AMZN.WEBRip.DDP5.1.x264-NTG 2.36GB悠悠MP4_MP4电影下载_间谍干涉/间谍本色 Spy.Intervention.2020.720p.AMZN.WEBRip.DDP5.1.x264-NTG 2.36GB悠悠MP4_MP4电影下载_间谍干涉/间谍本色 Spy.Intervention.2020.720p.AMZN.WEBRip.DDP5.1.x264-NTG 2.36GB


提示:如迅雷下载提示"任务出错"、"因版权无法下载",请尝试【迅雷5】
上传的附件:
最新回复 (0)
返回
本站所有资源均收集自互联网,没有提供影片资源存储, 也未参与录制、上传,若本站收录的资源无意侵犯了您的权益, 请联系邮箱:gogoimgs#gmail.com(#=@)