[2019] [其他] [剧情] [BD-4K] 婚姻故事 Marriage.Story.2019.2160p.NF.WEBRip.DDP5.1.x264-NTb 57.17GB

uump4 10天前 241

帖子完整标题:婚姻故事 Marriage.Story.2019.2160p.NF.WEBRip.DDP5.1.x264-NTb 57.17GB


悠悠MP4_MP4电影下载_婚姻故事 Marriage.Story.2019.2160p.NF.WEBRip.DDP5.1.x264-NTb 57.17GB

◎译  名 婚姻故事
◎片  名 Marriage Story
◎年  代 2019
◎产  地 英国 / 美国
◎类  别 剧情 / 爱情
◎语  言 英语
◎上映日期 2019-08-29(威尼斯电影节) / 2019-12-06(美国) / 2020(中国大陆)
◎IMDb评分 8.0/10 from 166175 users
◎IMDb链接 https://www.imdb.com/title/tt7653254
◎豆瓣评分 8.6/10 from 133512 users
◎豆瓣链接 https://movie.douban.com/subject/27202818/
◎片  长 136分钟
◎导  演 诺亚·鲍姆巴赫 Noah Baumbach
◎编  剧 诺亚·鲍姆巴赫 Noah Baumbach
◎主  演 斯嘉丽·约翰逊 Scarlett Johansson
      亚当·德赖弗 Adam Driver
      劳拉·邓恩 Laura Dern
      艾奇·罗伯逊 Azhy Robertson
      梅里特·韦弗 Merritt Wever
      阿伦·阿尔达 Alan Alda
      朱丽·哈基提 Julie Hagerty
      雷·利奥塔 Ray Liotta
      马克·奥布莱恩 Mark O'Brien
      华莱士·肖恩 Wallace Shawn
      凯尔·柏海莫 Kyle Bornheimer
      米奇·萨姆纳 Mickey Sumner
      马修·马希尔 Matthew Maher
      罗伯特·斯密戈尔 Robert Smigel
      艾登·梅耶里 Ayden Mayeri
      布鲁克·布鲁姆 Brooke Bloom
      玛莎·凯莉 Martha Kelly
      阿尔伯特·琼斯 Albert Jones
      汉娜·邓恩 Hannah Dunne
      桑德拉·罗斯科 Sandra Rosko
      麦金利·贝尔彻 McKinley Belcher III
      戈登·格里克 Gideon Glick
      马修·希尔 Matthew Shear
      阿米尔·塔莱 Amir Talai
      萨拉·琼斯 Sarah Jones
      文尼·希伯 Vinny Chhibber
      胡安·阿方索 Juan Alfonso
      洛蕾塔·谢诺斯基 Loretta Shenosky
      Tunde Adebimpe


◎标  签 婚姻 | 爱情 | 家庭 | 美国 | 剧情 | 2019 | 女性 | Netflix

◎简  介

  讲述了结婚多年并育有一子的戏剧导演查理和女演员妮可因工作分居而不得不走向离婚,在这场为了争夺抚养权的离婚拉锯战中,关于爱情、婚姻和家庭真实感人的细枝末节牵动人心。两人的关系又将何去何从?

◎获奖情况

  第92届奥斯卡金像奖(2020)
  最佳影片(提名) 大卫·海曼 / 诺亚·鲍姆巴赫
  最佳男主角(提名) 亚当·德赖弗
  最佳女主角(提名) 斯嘉丽·约翰逊
  最佳女配角 劳拉·邓恩
  最佳原创剧本(提名) 诺亚·鲍姆巴赫
  最佳原创配乐(提名) 兰迪·纽曼

  第76届威尼斯电影节(2019)
  主竞赛单元 金狮奖 (提名) 诺亚·鲍姆巴赫

  第77届金球奖(2020)
  电影类 最佳剧情片(提名)
  电影类 剧情片最佳男主角(提名) 亚当·德赖弗
  电影类 剧情片最佳女主角(提名) 斯嘉丽·约翰逊
  电影类 最佳女配角 劳拉·邓恩
  电影类 最佳编剧(提名) 诺亚·鲍姆巴赫
  电影类 最佳原创配乐(提名) 兰迪·纽曼

  第73届英国电影学院奖(2020)
  电影奖 最佳男主角(提名) 亚当·德赖弗
  电影奖 最佳女主角(提名) 斯嘉丽·约翰逊
  电影奖 最佳女配角 劳拉·邓恩
  电影奖 最佳原创剧本(提名) 诺亚·鲍姆巴赫
  电影奖 最佳选角(提名)

  第44届多伦多国际电影节(2019)
  观众选择奖(提名) 诺亚·鲍姆巴赫

  第26届美国演员工会奖(2020)
  电影奖 最佳男主角(提名) 亚当·德赖弗
  电影奖 最佳女主角(提名) 斯嘉丽·约翰逊
  电影奖 最佳女配角 劳拉·邓恩

  第72届美国编剧工会奖(2020)
  电影奖 最佳原创剧本(提名) 诺亚·鲍姆巴赫

  第31届美国制片人工会奖(2020)
  最佳电影制片人奖(提名)

  第70届美国剪辑工会奖(2020)
  剧情片最佳剪辑(提名) 詹妮弗·拉梅

  第85届纽约影评人协会奖(2019)
  最佳女配角 劳拉·邓恩

  第91届美国国家评论协会奖(2019)
  年度佳片

  第25届美国评论家选择电影奖(2020)
  最佳影片(提名)
  最佳导演(提名) 诺亚·鲍姆巴赫
  最佳男主角(提名) 亚当·德赖弗
  最佳女主角(提名) 斯嘉丽·约翰逊
  最佳女配角 劳拉·邓恩
  最佳群戏(提名)
  最佳原创剧本(提名) 诺亚·鲍姆巴赫
  最佳配乐(提名)

  第35届美国独立精神奖(2020)
  最佳影片(提名)
  最佳剧本 诺亚·鲍姆巴赫
  罗伯特·奥特曼电影奖

  第22届英国独立电影奖(2019)
  最佳外国独立电影(提名)

  第29届哥谭独立电影奖(2019)
  最佳影片
  最佳男演员 亚当·德赖弗
  最佳剧本 诺亚·鲍姆巴赫

  第20届美国电影学会奖(2019)
  年度佳片

  第24届金卫星奖(2020)
  电影部门 最佳剧情片(提名)
  电影部门 最佳导演(提名) 诺亚·鲍姆巴赫
  电影部门 剧情片最佳男主角(提名) 亚当·德赖弗
  电影部门 剧情片最佳女主角 斯嘉丽·约翰逊
  电影部门 最佳女配角(提名) 劳拉·邓恩
  电影部门 最佳原创剧本 诺亚·鲍姆巴赫
  电影部门 最佳原创配乐(提名)
  电影部门 最佳剪辑(提名)

  第23届好莱坞电影奖(2019)
  年度女配角 劳拉·邓恩
  年度配乐 兰迪·纽曼

  第54届美国国家影评人协会奖(2020)
  最佳男主角(提名) 亚当·德赖弗
  最佳女配角 劳拉·邓恩

  第18届华盛顿影评人协会奖(2019)
  最佳男主角 亚当·德赖弗
  最佳原创剧本 诺亚·鲍姆巴赫

  第40届伦敦影评人协会奖(2020)
  年度电影(提名)
  年度编剧(提名) 诺亚·鲍姆巴赫
  年度男主角(提名) 亚当·德赖弗
  年度女主角(提名) 斯嘉丽·约翰逊
  年度女配角(提名) 劳拉·邓恩

  第40届波士顿影评人协会奖(2019)
  最佳女配角 劳拉·邓恩
  最佳剧本(提名) 诺亚·鲍姆巴赫

  第45届洛杉矶影评人协会奖(2019)
  最佳男主角(提名) 亚当·德赖弗
  最佳剧本 诺亚·鲍姆巴赫

  第32届芝加哥影评人协会奖(2019)
  最佳影片(提名)
  最佳导演(提名) 诺亚·鲍姆巴赫
  最佳男主角(提名) 亚当·德赖弗
  最佳女主角(提名) 斯嘉丽·约翰逊
  最佳女配角(提名) 劳拉·邓恩
  最佳原创剧本(提名) 诺亚·鲍姆巴赫
  最佳原创配乐(提名) 兰迪·纽曼

  第13届底特律影评人协会奖(2019)
  最佳男主角 亚当·德赖弗
  最佳女主角 斯嘉丽·约翰逊
  最佳女配角 劳拉·邓恩
  最佳剧本 诺亚·鲍姆巴赫

  第4届亚特兰大影评人协会奖(2019)
  十佳影片
  最佳男主角 亚当·德赖弗
  最佳女配角 劳拉·邓恩

  第23届美国在线影评人协会奖(2020)
  最佳影片(提名)
  最佳男主角 亚当·德赖弗
  最佳女主角(提名) 斯嘉丽·约翰逊
  最佳女配角(提名) 劳拉·邓恩
  最佳原创剧本(提名) 诺亚·鲍姆巴赫
  最佳原创配乐(提名) 兰迪·纽曼

  第6届豆瓣电影年度榜单(2019)
  年度冷门佳片(提名)
  评分最高的爱情片
Video
ID : 1
Format : AVC
Format/Info : Advanced Video Codec
Format profile : [email protected]
Format settings : CABAC / 4 Ref Frames
Format settings, CABAC : Yes
Format settings, Reference frames : 4 frames
Codec ID : V_MPEG4/ISO/AVC
Duration : 2 h 16 min
Bit rate : 59.1 Mb/s
Width : 3 600 pixels
Height : 2 160 pixels
Display aspect ratio : 5:3
Frame rate mode : Constant
Frame rate : 24.000 FPS
Color space : YUV
Chroma subsampling : 4:2:0
Bit depth : 8 bits
Scan type : Progressive
Bits/(Pixel*Frame) : 0.317
Stream size : 56.6 GiB (99%)
Writing library : x264 core 159 r2991+50 29469ee t_mod_New [[email protected] X86_64]
Encoding settings : cabac=1 / ref=1 / deblock=1:-3:-3 / analyse=0x3:0x133 / me=umh / subme=10 / psy=1 / fade_compensate=0.00 / psy_rd=1.00:0.00 / mixed_ref=0 / me_range=48 / chroma_me=1 / trellis=2 / 8x8dct=1 / cqm=0 / deadzone=21,11 / fast_pskip=1 / chroma_qp_offset=-2 / threads=36 / lookahead_threads=6 / sliced_threads=0 / nr=0 / decimate=1 / interlaced=0 / bluray_compat=0 / constrained_intra=0 / fgo=0 / bframes=8 / b_pyramid=2 / b_adapt=2 / b_bias=0 / direct=3 / weightb=1 / open_gop=0 / weightp=2 / keyint=250 / keyint_min=24 / scenecut=40 / intra_refresh=0 / rc=crf / mbtree=0 / crf=20.0000 / qcomp=0.60 / qpmin=0:0:0 / qpmax=69:69:69 / qpstep=4 / ip_ratio=1.30 / pb_ratio=1.20 / aq=3:0.80 / aq-sensitivity=10.00 / aq-factor=1.00:1.00:1.00 / aq2=0 / aq3=0
Language : English
Default : Yes
Forced : No

Audio
ID : 2
Format : E-AC-3
Format/Info : Enhanced AC-3
Commercial name : Dolby Digital Plus
Codec ID : A_EAC3
Duration : 2 h 16 min
Bit rate mode : Constant
Bit rate : 640 kb/s
Channel(s) : 6 channels
Channel layout : L R C LFE Ls Rs
Sampling rate : 48.0 kHz
Frame rate : 31.250 FPS (1536 SPF)
Compression mode : Lossy
Stream size : 627 MiB (1%)
Title : English
Language : English
Service kind : Complete Main
Default : Yes
Forced : No

Text #1
ID : 3
Format : UTF-8
Codec ID : S_TEXT/UTF8
Codec ID/Info : UTF-8 Plain Text
Duration : 2 h 11 min
Bit rate : 103 b/s
Count of elements : 2796
Stream size : 100.0 KiB (0%)
Title : SDH
Language : English
Default : No
Forced : No

Text #2
ID : 4
Format : UTF-8
Codec ID : S_TEXT/UTF8
Codec ID/Info : UTF-8 Plain Text
Duration : 2 h 16 min
Bit rate : 145 b/s
Count of elements : 2446
Stream size : 145 KiB (0%)
Language : Arabic
Default : No
Forced : No

Text #3
ID : 5
Format : UTF-8
Codec ID : S_TEXT/UTF8
Codec ID/Info : UTF-8 Plain Text
Duration : 2 h 16 min
Bit rate : 75 b/s
Count of elements : 2446
Stream size : 74.9 KiB (0%)
Language : Czech
Default : No
Forced : No

Text #4
ID : 6
Format : UTF-8
Codec ID : S_TEXT/UTF8
Codec ID/Info : UTF-8 Plain Text
Duration : 2 h 16 min
Bit rate : 80 b/s
Count of elements : 2439
Stream size : 79.9 KiB (0%)
Language : Danish
Default : No
Forced : No

Text #5
ID : 7
Format : UTF-8
Codec ID : S_TEXT/UTF8
Codec ID/Info : UTF-8 Plain Text
Duration : 2 h 16 min
Bit rate : 75 b/s
Count of elements : 2206
Stream size : 75.3 KiB (0%)
Language : German
Default : No
Forced : No

Text #6
ID : 8
Format : UTF-8
Codec ID : S_TEXT/UTF8
Codec ID/Info : UTF-8 Plain Text
Duration : 2 h 16 min
Bit rate : 133 b/s
Count of elements : 2446
Stream size : 133 KiB (0%)
Language : Greek
Default : No
Forced : No

Text #7
ID : 9
Format : UTF-8
Codec ID : S_TEXT/UTF8
Codec ID/Info : UTF-8 Plain Text
Duration : 2 h 16 min
Bit rate : 79 b/s
Count of elements : 2322
Stream size : 78.9 KiB (0%)
Language : Spanish
Default : No
Forced : No

Text #8
ID : 10
Format : UTF-8
Codec ID : S_TEXT/UTF8
Codec ID/Info : UTF-8 Plain Text
Duration : 2 h 15 min
Bit rate : 76 b/s
Count of elements : 2388
Stream size : 75.9 KiB (0%)
Title : European
Language : Spanish
Default : No
Forced : No

Text #9
ID : 11
Format : UTF-8
Codec ID : S_TEXT/UTF8
Codec ID/Info : UTF-8 Plain Text
Duration : 2 h 16 min
Bit rate : 74 b/s
Count of elements : 2442
Stream size : 74.1 KiB (0%)
Language : Finnish
Default : No
Forced : No

Text #10
ID : 12
Format : UTF-8
Codec ID : S_TEXT/UTF8
Codec ID/Info : UTF-8 Plain Text
Duration : 2 h 15 min
Bit rate : 78 b/s
Count of elements : 2421
Stream size : 77.9 KiB (0%)
Language : French
Default : No
Forced : No

Text #11
ID : 13
Format : UTF-8
Codec ID : S_TEXT/UTF8
Codec ID/Info : UTF-8 Plain Text
Duration : 2 h 16 min
Bit rate : 120 b/s
Count of elements : 2446
Stream size : 120 KiB (0%)
Language : Hebrew
Default : No
Forced : No

Text #12
ID : 14
Format : UTF-8
Codec ID : S_TEXT/UTF8
Codec ID/Info : UTF-8 Plain Text
Duration : 2 h 16 min
Bit rate : 87 b/s
Count of elements : 2445
Stream size : 87.6 KiB (0%)
Language : Hungarian
Default : No
Forced : No

Text #13
ID : 15
Format : UTF-8
Codec ID : S_TEXT/UTF8
Codec ID/Info : UTF-8 Plain Text
Duration : 2 h 15 min
Bit rate : 82 b/s
Count of elements : 2452
Stream size : 82.2 KiB (0%)
Language : Indonesian
Default : No
Forced : No

Text #14
ID : 16
Format : UTF-8
Codec ID : S_TEXT/UTF8
Codec ID/Info : UTF-8 Plain Text
Duration : 2 h 16 min
Bit rate : 78 b/s
Count of elements : 2426
Stream size : 78.8 KiB (0%)
Language : Italian
Default : No
Forced : No

Text #15
ID : 17
Format : UTF-8
Codec ID : S_TEXT/UTF8
Codec ID/Info : UTF-8 Plain Text
Duration : 2 h 16 min
Bit rate : 68 b/s
Count of elements : 2499
Stream size : 68.0 KiB (0%)
Language : Japanese
Default : No
Forced : No

Text #16
ID : 18
Format : UTF-8
Codec ID : S_TEXT/UTF8
Codec ID/Info : UTF-8 Plain Text
Duration : 2 h 16 min
Bit rate : 88 b/s
Count of elements : 2520
Stream size : 87.7 KiB (0%)
Language : Korean
Default : No
Forced : No

Text #17
ID : 19
Format : UTF-8
Codec ID : S_TEXT/UTF8
Codec ID/Info : UTF-8 Plain Text
Duration : 2 h 16 min
Bit rate : 80 b/s
Count of elements : 2437
Stream size : 80.1 KiB (0%)
Language : Norwegian Bokmal
Default : No
Forced : No

Text #18
ID : 20
Format : UTF-8
Codec ID : S_TEXT/UTF8
Codec ID/Info : UTF-8 Plain Text
Duration : 2 h 16 min
Bit rate : 75 b/s
Count of elements : 2395
Stream size : 74.8 KiB (0%)
Language : Dutch
Default : No
Forced : No

Text #19
ID : 21
Format : UTF-8
Codec ID : S_TEXT/UTF8
Codec ID/Info : UTF-8 Plain Text
Duration : 2 h 16 min
Bit rate : 77 b/s
Count of elements : 2408
Stream size : 77.0 KiB (0%)
Language : Polish
Default : No
Forced : No

Text #20
ID : 22
Format : UTF-8
Codec ID : S_TEXT/UTF8
Codec ID/Info : UTF-8 Plain Text
Duration : 2 h 15 min
Bit rate : 81 b/s
Count of elements : 2467
Stream size : 80.9 KiB (0%)
Language : Portuguese
Default : No
Forced : No

Text #21
ID : 23
Format : UTF-8
Codec ID : S_TEXT/UTF8
Codec ID/Info : UTF-8 Plain Text
Duration : 2 h 15 min
Bit rate : 74 b/s
Count of elements : 2380
Stream size : 74.7 KiB (0%)
Title : Brazilian
Language : Portuguese
Default : No
Forced : No

Text #22
ID : 24
Format : UTF-8
Codec ID : S_TEXT/UTF8
Codec ID/Info : UTF-8 Plain Text
Duration : 2 h 12 min
Bit rate : 84 b/s
Count of elements : 2491
Stream size : 81.8 KiB (0%)
Language : Romanian
Default : No
Forced : No

Text #23
ID : 25
Format : UTF-8
Codec ID : S_TEXT/UTF8
Codec ID/Info : UTF-8 Plain Text
Duration : 2 h 16 min
Bit rate : 132 b/s
Count of elements : 2417
Stream size : 132 KiB (0%)
Language : Russian
Default : No
Forced : No

Text #24
ID : 26
Format : UTF-8
Codec ID : S_TEXT/UTF8
Codec ID/Info : UTF-8 Plain Text
Duration : 2 h 16 min
Bit rate : 80 b/s
Count of elements : 2446
Stream size : 80.4 KiB (0%)
Language : Swedish
Default : No
Forced : No

Text #25
ID : 27
Format : UTF-8
Codec ID : S_TEXT/UTF8
Codec ID/Info : UTF-8 Plain Text
Duration : 2 h 15 min
Bit rate : 215 b/s
Count of elements : 2587
Stream size : 214 KiB (0%)
Language : Thai
Default : No
Forced : No

Text #26
ID : 28
Format : UTF-8
Codec ID : S_TEXT/UTF8
Codec ID/Info : UTF-8 Plain Text
Duration : 2 h 16 min
Bit rate : 81 b/s
Count of elements : 2446
Stream size : 81.1 KiB (0%)
Language : Turkish
Default : No
Forced : No

Text #27
ID : 29
Format : UTF-8
Codec ID : S_TEXT/UTF8
Codec ID/Info : UTF-8 Plain Text
Duration : 2 h 11 min
Bit rate : 113 b/s
Count of elements : 2445
Stream size : 109 KiB (0%)
Language : Vietnamese
Default : No
Forced : No

Text #28
ID : 30
Format : UTF-8
Codec ID : S_TEXT/UTF8
Codec ID/Info : UTF-8 Plain Text
Duration : 2 h 16 min
Bit rate : 78 b/s
Count of elements : 2446
Stream size : 78.0 KiB (0%)
Title : Simplified
Language : Chinese
Default : No
Forced : No

Text #29
ID : 31
Format : UTF-8
Codec ID : S_TEXT/UTF8
Codec ID/Info : UTF-8 Plain Text
Duration : 2 h 16 min
Bit rate : 70 b/s
Count of elements : 2523
Stream size : 70.3 KiB (0%)
Title : Traditional
Language : Chinese
Default : No
Forced : No

悠悠MP4_MP4电影下载_婚姻故事 Marriage.Story.2019.2160p.NF.WEBRip.DDP5.1.x264-NTb 57.17GB悠悠MP4_MP4电影下载_婚姻故事 Marriage.Story.2019.2160p.NF.WEBRip.DDP5.1.x264-NTb 57.17GB悠悠MP4_MP4电影下载_婚姻故事 Marriage.Story.2019.2160p.NF.WEBRip.DDP5.1.x264-NTb 57.17GB


提示:如迅雷下载提示"任务出错"、"因版权无法下载",请尝试【迅雷5】
上传的附件:
最新回复 (0)
返回
本站所有资源均收集自互联网,没有提供影片资源存储, 也未参与录制、上传,若本站收录的资源无意侵犯了您的权益, 请联系邮箱:gogoimgs#gmail.com(#=@)