[更早] [欧美] [剧情] [BD-1080P] 人之欲 Human.Desire.1954.PROPER.1080p.BluRay.x264-USURY 8.75GB

uump4 7月前 210

帖子完整标题:人之欲 Human.Desire.1954.PROPER.1080p.BluRay.x264-USURY 8.75GB


悠悠MP4_MP4电影下载_人之欲 Human.Desire.1954.PROPER.1080p.BluRay.x264-USURY 8.75GB

◎译  名 人之欲
◎片  名 Human Desire
◎年  代 1954
◎产  地 美国
◎类  别 剧情 / 爱情 / 黑色电影
◎语  言 英语
◎上映日期 1954-08-05(美国)
◎IMDb评分  7.1/10 from 3943 users
◎IMDb链接  https://www.imdb.com/title/tt0047101
◎豆瓣评分 7.6/10 from 318 users
◎豆瓣链接 https://movie.douban.com/subject/1860438/
◎片  长 91分钟
◎导  演 弗里茨·朗 Fritz Lang
◎编  剧 Alfred Hayes / 左拉 émile Zola
◎主  演 格伦·福特 Glenn Ford
       格洛丽亚·格雷厄姆 Gloria Grahame
       布罗德里克·克劳福 Broderick Crawford
       埃德加·巴詹南 Edgar Buchanan
       Kathleen Case
       Peggy Maley
       Grandon Rhodes


◎标  签 美国 | 弗里茨·朗 | 黑色电影 | Fritz_Lang | 1954 | FritzLang | 1950s | 美国电影

◎简  介  

  从朝鲜战场退伍归来的火车司机Jeff爱上了同事Carl的妻子Vicky,却无意中卷入了一场火车命案。是真爱还是早有预谋的借刀杀人?最后时刻Jeff又将如何抉择?

Video
ID                                       : 1
Format                                   : AVC
Format/Info                              : Advanced Video Codec
Format profile                           : [email protected]
Format settings                          : CABAC / 4 Ref Frames
Format settings, CABAC                   : Yes
Format settings, Reference frames        : 4 frames
Codec ID                                 : V_MPEG4/ISO/AVC
Duration                                 : 1 h 30 min
Bit rate                                 : 13.2 Mb/s
Width                                    : 1 920 pixels
Height                                   : 1 040 pixels
Display aspect ratio                     : 1.85:1
Frame rate mode                          : Constant
Frame rate                               : 23.976 (24000/1001) FPS
Color space                              : YUV
Chroma subsampling                       : 4:2:0
Bit depth                                : 8 bits
Scan type                                : Progressive
Bits/(Pixel*Frame)                       : 0.275
Stream size                              : 8.35 GiB (95%)
Writing library                          : x264 core 157 r2969 d4099dd
Encoding settings                        : cabac=1 / ref=4 / deblock=1:-3:-3 / analyse=0x3:0x133 / me=umh / subme=9 / psy=1 / psy_rd=1.00:0.00 / mixed_ref=1 / me_range=16 / chroma_me=1 / trellis=2 / 8x8dct=1 / cqm=0 / deadzone=21,11 / fast_pskip=0 / chroma_qp_offset=-2 / threads=18 / lookahead_threads=1 / sliced_threads=0 / nr=0 / decimate=1 / interlaced=0 / bluray_compat=0 / constrained_intra=0 / bframes=3 / b_pyramid=2 / b_adapt=1 / b_bias=0 / direct=3 / weightb=1 / open_gop=0 / weightp=2 / keyint=240 / keyint_min=24 / scenecut=40 / intra_refresh=0 / rc_lookahead=50 / rc=2pass / mbtree=1 / bitrate=13165 / ratetol=1.0 / qcomp=0.60 / qpmin=0 / qpmax=69 / qpstep=4 / cplxblur=20.0 / qblur=0.5 / ip_ratio=1.40 / aq=1:1.00
Language                                 : English
Default                                  : Yes
Forced                                   : No

Audio
ID                                       : 2
Format                                   : FLAC
Format/Info                              : Free Lossless Audio Codec
Codec ID                                 : A_FLAC
Duration                                 : 1 h 30 min
Bit rate mode                            : Variable
Bit rate                                 : 618 kb/s
Channel(s)                               : 2 channels
Channel layout                           : L R
Sampling rate                            : 48.0 kHz
Frame rate                               : 11.719 FPS (4096 SPF)
Bit depth                                : 24 bits
Compression mode                         : Lossless
Stream size                              : 402 MiB (4%)
Writing library                          : libFLAC 1.2.1 (UTC 2007-09-17)
Language                                 : English
Default                                  : Yes
Forced                                   : No

Text #1
ID                                       : 3
Format                                   : UTF-8
Codec ID                                 : S_TEXT/UTF8
Codec ID/Info                            : UTF-8 Plain Text
Duration                                 : 1 h 25 min
Bit rate                                 : 52 b/s
Count of elements                        : 1028
Stream size                              : 32.6 KiB (0%)
Title                                    : English
Language                                 : English
Default                                  : No
Forced                                   : No

Text #2
ID                                       : 4
Format                                   : UTF-8
Codec ID                                 : S_TEXT/UTF8
Codec ID/Info                            : UTF-8 Plain Text
Duration                                 : 1 h 26 min
Bit rate                                 : 54 b/s
Count of elements                        : 1092
Stream size                              : 34.3 KiB (0%)
Title                                    : English SDH
Language                                 : English
Default                                  : No
Forced                                   : No

Menu
00:00:00.000                             : en:00:00:00.000
00:11:41.701                             : en:00:11:41.701
00:24:38.769                             : en:00:24:38.769
00:35:41.014                             : en:00:35:41.014
00:50:31.403                             : en:00:50:31.403
01:05:02.857                             : en:01:05:02.857
01:20:40.377                             : en:01:20:40.377


悠悠MP4_MP4电影下载_人之欲 Human.Desire.1954.PROPER.1080p.BluRay.x264-USURY 8.75GB


提示:如迅雷下载提示"任务出错"、"因版权无法下载",请尝试【迅雷5】
上传的附件:
最新回复 (0)
返回
本站所有资源均收集自互联网,没有提供影片资源存储, 也未参与录制、上传,若本站收录的资源无意侵犯了您的权益, 请联系邮箱:gogoimgs#gmail.com(#=@)