[更早] [其他] [BD-1080P] 不速之客 The.Uninvited.Guest.1969.1080p.BluRay.x264-BiPOLAR 1.46GB

uump4 7月前 150

帖子完整标题:不速之客 The.Uninvited.Guest.1969.1080p.BluRay.x264-BiPOLAR 1.46GB


悠悠MP4_MP4电影下载_不速之客 The.Uninvited.Guest.1969.1080p.BluRay.x264-BiPOLAR 1.46GB

◎译  名 不速之客 / The Uninvited Guest
◎片  名 Nezvany host
◎年  代 1969
◎产  地 Czechoslovakia
◎IMDb评分  7.7/10 from 43 users
◎IMDb链接  https://www.imdb.com/title/tt0187350
◎豆瓣评分 0/10 from 0 users
◎豆瓣链接 https://movie.douban.com/subject/10463678/
◎导  演 Vlastimil Venclík

◎标  签 Vlastimil_Venclík | 捷克∨斯洛伐克 | 捷克 | ◎欧洲电影 | Videmus | 1960s | #CINEFAN#

◎简  介  

  Nezvany host (1969)
  23 min  -  Short   -  5 September 1991 (Czechoslovakia)

Video
ID                                       : 1
Format                                   : AVC
Format/Info                              : Advanced Video Codec
Format profile                           : [email protected]
Format settings                          : CABAC / 4 Ref Frames
Format settings, CABAC                   : Yes
Format settings, Reference frames        : 4 frames
Codec ID                                 : V_MPEG4/ISO/AVC
Duration                                 : 22 min 55 s
Bit rate                                 : 8 665 kb/s
Width                                    : 1 488 pixels
Height                                   : 1 080 pixels
Display aspect ratio                     : 1.378
Frame rate mode                          : Constant
Frame rate                               : 24.000 FPS
Color space                              : YUV
Chroma subsampling                       : 4:2:0
Bit depth                                : 8 bits
Scan type                                : Progressive
Bits/(Pixel*Frame)                       : 0.225
Stream size                              : 1.39 GiB (95%)
Writing library                          : x264 core 157 r2969 d4099dd
Encoding settings                        : cabac=1 / ref=4 / deblock=1:-3:-3 / analyse=0x3:0x133 / me=umh / subme=9 / psy=1 / psy_rd=1.00:0.00 / mixed_ref=1 / me_range=16 / chroma_me=1 / trellis=2 / 8x8dct=1 / cqm=0 / deadzone=21,11 / fast_pskip=0 / chroma_qp_offset=-2 / threads=18 / lookahead_threads=1 / sliced_threads=0 / nr=0 / decimate=1 / interlaced=0 / bluray_compat=0 / constrained_intra=0 / bframes=3 / b_pyramid=2 / b_adapt=1 / b_bias=0 / direct=3 / weightb=1 / open_gop=0 / weightp=2 / keyint=240 / keyint_min=24 / scenecut=40 / intra_refresh=0 / rc_lookahead=50 / rc=2pass / mbtree=1 / bitrate=8665 / ratetol=1.0 / qcomp=0.60 / qpmin=0 / qpmax=69 / qpstep=4 / cplxblur=20.0 / qblur=0.5 / ip_ratio=1.40 / aq=1:1.00
Language                                 : English
Default                                  : Yes
Forced                                   : No

Audio
ID                                       : 2
Format                                   : FLAC
Format/Info                              : Free Lossless Audio Codec
Codec ID                                 : A_FLAC
Duration                                 : 22 min 55 s
Bit rate mode                            : Variable
Bit rate                                 : 425 kb/s
Channel(s)                               : 2 channels
Channel layout                           : L R
Sampling rate                            : 48.0 kHz
Frame rate                               : 11.719 FPS (4096 SPF)
Bit depth                                : 16 bits
Compression mode                         : Lossless
Stream size                              : 69.7 MiB (5%)
Writing library                          : libFLAC 1.2.1 (UTC 2007-09-17)
Language                                 : Czech
Default                                  : Yes
Forced                                   : No

Text
ID                                       : 3
Format                                   : UTF-8
Codec ID                                 : S_TEXT/UTF8
Codec ID/Info                            : UTF-8 Plain Text
Duration                                 : 22 min 53 s
Bit rate                                 : 40 b/s
Count of elements                        : 210
Stream size                              : 6.79 KiB (0%)
Title                                    : English
Language                                 : English
Default                                  : Yes
Forced                                   : Yes

Menu
00:00:00.000                             : en:00:00:00.000
00:06:37.000                             : en:00:06:37.000
00:17:29.083                             : en:00:17:29.083


悠悠MP4_MP4电影下载_不速之客 The.Uninvited.Guest.1969.1080p.BluRay.x264-BiPOLAR 1.46GB


提示:如迅雷下载提示"任务出错"、"因版权无法下载",请尝试【迅雷5】
上传的附件:
最新回复 (0)
返回
本站所有资源均收集自互联网,没有提供影片资源存储, 也未参与录制、上传,若本站收录的资源无意侵犯了您的权益, 请联系邮箱:gogoimgs#gmail.com(#=@)