[更早] [欧美] [其他] [BD-720P] 危险情人 Shoot.Out.1971.720p.BluRay.x264-VETO 4.37GB

uump4 8天前 45

帖子完整标题:危险情人 Shoot.Out.1971.720p.BluRay.x264-VETO 4.37GB


悠悠MP4_MP4电影下载_危险情人 Shoot.Out.1971.720p.BluRay.x264-VETO 4.37GB

◎译  名 危险情人 / Abrechnung in Gun Hill
◎片  名 Shoot Out
◎年  代 1971
◎产  地 美国
◎类  别 西部
◎语  言 英语
◎上映日期 1971-08-16
◎IMDb评分  6.2/10 from 1407 users
◎IMDb链接  https://www.imdb.com/title/tt0067750
◎豆瓣评分 0/10 from 0 users
◎豆瓣链接 https://movie.douban.com/subject/1295110/
◎片  长 95 分钟
◎导  演 亨利·哈撒韦 Henry Hathaway
◎编  剧 Marguerite Roberts / Will James
◎主  演 格利高里·派克 Gregory Peck
       帕特里夏·奎因 Patricia Quinn
       罗伯特·F·莱昂斯 Robert F. Lyons
       苏珊·泰瑞尔 Susan Tyrrell
       杰夫·科里 Jeff Corey
       詹姆斯·格雷戈里 James Gregory


◎标  签 美国 | 美国电影 | 西部片 | 爱情 | 西部 | 经典老片 | 简单爱 | 喜剧

◎简  介  

  A former bank robber searches for his double crossing partner who left him for dead, while having to look after a 6 year old girl.

Video
ID                                       : 1
Format                                   : AVC
Format/Info                              : Advanced Video Codec
Format profile                           : [email protected]
Format settings                          : CABAC / 5 Ref Frames
Format settings, CABAC                   : Yes
Format settings, Reference frames        : 5 frames
Codec ID                                 : V_MPEG4/ISO/AVC
Duration                                 : 1 h 34 min
Bit rate                                 : 5 112 kb/s
Width                                    : 1 280 pixels
Height                                   : 696 pixels
Display aspect ratio                     : 1.85:1
Frame rate mode                          : Constant
Frame rate                               : 23.976 (23976/1000) FPS
Original frame rate                      : 23.976 (24000/1001) FPS
Color space                              : YUV
Chroma subsampling                       : 4:2:0
Bit depth                                : 8 bits
Scan type                                : Progressive
Bits/(Pixel*Frame)                       : 0.239
Stream size                              : 3.37 GiB (77%)
Writing library                          : x264 core 157 r2969 d4099dd
Encoding settings                        : cabac=1 / ref=5 / deblock=1:1:1 / analyse=0x3:0x133 / me=umh / subme=8 / psy=1 / psy_rd=1.00:0.00 / mixed_ref=1 / me_range=16 / chroma_me=1 / trellis=1 / 8x8dct=1 / cqm=0 / deadzone=21,11 / fast_pskip=0 / chroma_qp_offset=-2 / threads=16 / lookahead_threads=2 / sliced_threads=0 / nr=0 / decimate=1 / interlaced=0 / bluray_compat=0 / constrained_intra=0 / bframes=3 / b_pyramid=2 / b_adapt=2 / b_bias=0 / direct=3 / weightb=1 / open_gop=0 / weightp=2 / keyint=250 / keyint_min=23 / scenecut=40 / intra_refresh=0 / rc_lookahead=50 / rc=2pass / mbtree=1 / bitrate=5112 / ratetol=1.0 / qcomp=0.60 / qpmin=0 / qpmax=69 / qpstep=4 / cplxblur=20.0 / qblur=0.5 / ip_ratio=1.40 / aq=1:1.00
Default                                  : Yes
Forced                                   : No

Audio
ID                                       : 2
Format                                   : DTS
Format/Info                              : Digital Theater Systems
Codec ID                                 : A_DTS
Duration                                 : 1 h 34 min
Bit rate mode                            : Constant
Bit rate                                 : 1 509 kb/s
Channel(s)                               : 2 channels
Channel layout                           : L R
Sampling rate                            : 48.0 kHz
Frame rate                               : 93.750 FPS (512 SPF)
Bit depth                                : 24 bits
Compression mode                         : Lossy
Stream size                              : 1 019 MiB (23%)
Language                                 : English
Default                                  : Yes
Forced                                   : No

Menu
00:00:00.000                             : en:00:00:00.000
00:01:55.866                             : en:00:01:55.866
00:07:11.640                             : en:00:07:11.640
00:15:39.981                             : en:00:15:39.981
00:22:12.665                             : en:00:22:12.665
00:30:13.478                             : en:00:30:13.478
00:35:19.576                             : en:00:35:19.576
00:38:43.530                             : en:00:38:43.530
00:49:02.982                             : en:00:49:02.982
00:58:35.721                             : en:00:58:35.721
01:04:48.718                             : en:01:04:48.718
01:10:21.426                             : en:01:10:21.426
01:16:16.155                             : en:01:16:16.155
01:21:33.055                             : en:01:21:33.055
01:24:33.777                             : en:01:24:33.777
01:33:39.948                             : en:01:33:39.948
00:00:00.542                             : en:00:00:00.542


悠悠MP4_MP4电影下载_危险情人 Shoot.Out.1971.720p.BluRay.x264-VETO 4.37GB


提示:如迅雷下载提示"任务出错"、"因版权无法下载",请尝试【迅雷5】
上传的附件:
最新回复 (0)
返回
本站所有资源均收集自互联网,没有提供影片资源存储, 也未参与录制、上传,若本站收录的资源无意侵犯了您的权益, 请联系邮箱:gogoimgs#gmail.com(#=@)