[2019] [欧美] [动作] [WEB-1080P] 老兵 VFW.2019.1080p.WEBRip.DD5.1.x264-CM 5.27GB

uump4 7月前 306

帖子完整标题:老兵 VFW.2019.1080p.WEBRip.DD5.1.x264-CM 5.27GB


悠悠MP4_MP4电影下载_老兵 VFW.2019.1080p.WEBRip.DD5.1.x264-CM 5.27GB

◎译  名 老兵 / Veterans of Foreign Wars / 海外作战退伍军人 / 美国国外战争退伍军人
◎片  名 V.F.W.
◎年  代 2019
◎产  地 美国
◎类  别 动作 / 恐怖
◎语  言 英语
◎上映日期 2019-09-21(美国)
◎IMDb评分  6.8/10 from 155 users
◎IMDb链接  https://www.imdb.com/title/tt9894470
◎豆瓣评分 0/10 from 0 users
◎豆瓣链接 https://movie.douban.com/subject/30478334/
◎片  长 92分钟
◎导  演 Joe Begos
◎编  剧 马克斯·布莱利尔 Max Brallier / Matthew McArdle
◎主  演 多拉·马迪森·布鲁格 Dora Madison Burge
       史蒂芬·朗 Stephen Lang
       乔治·温迪特 George Wendt
       威廉姆·赛德勒 William Sadler
       马丁·科夫  Martin Kove
       大卫·帕特里克·凯利 David Patrick Kelly
       谢拉·麦克康米克 Sierra McCormick
       弗雷德·威廉森 Fred Williamson
       汤姆·威廉姆森 Tom Williamson
       Graham Skipper
       Travis Hammer
       Josh Ethier
       Linnea Wilson
       Preston Fassel
       Taylor Harris
       Leon Slaughter


◎标  签 美国电影 | 恐怖 | 待看 | 史蒂芬·朗 | 动作

◎简  介  

  史蒂芬·朗将主演动作恐怖新片[V.F.W.]。影片被描述为[日落黄沙]和[活死人之夜]的结合体。故事讲述弗雷德和他的战友们必须保护他们当地的VFW基地。一个无辜的青少年将对抗疯狂的毒贩和无情的朋克变种人军队。这将是这些越战老兵们一生中最漫长的夜晚。本片由乔·毕高斯执导,马克斯·布拉利尔、马修·麦卡德尔撰写剧本,将于本月在达拉斯开机。

Video
ID                                       : 1
Format                                   : AVC
Format/Info                              : Advanced Video Codec
Format profile                           : [email protected]
Format settings                          : CABAC / 2 Ref Frames
Format settings, CABAC                   : Yes
Format settings, Reference frames        : 2 frames
Codec ID                                 : V_MPEG4/ISO/AVC
Duration                                 : 1 h 31 min
Bit rate                                 : 7 832 kb/s
Width                                    : 1 920 pixels
Height                                   : 1 080 pixels
Display aspect ratio                     : 16:9
Frame rate mode                          : Constant
Frame rate                               : 24.000 FPS
Color space                              : YUV
Chroma subsampling                       : 4:2:0
Bit depth                                : 8 bits
Scan type                                : Progressive
Bits/(Pixel*Frame)                       : 0.157
Stream size                              : 5.02 GiB (95%)
Writing library                          : x264 core 155 r2901 7d0ff22
Language                                 : English
Default                                  : Yes
Forced                                   : No
Color range                              : Limited
Color primaries                          : BT.709
Transfer characteristics                 : BT.709
Matrix coefficients                      : BT.709

Audio
ID                                       : 2
Format                                   : AC-3
Format/Info                              : Audio Coding 3
Commercial name                          : Dolby Digital
Codec ID                                 : A_AC3
Duration                                 : 1 h 31 min
Bit rate mode                            : Constant
Bit rate                                 : 384 kb/s
Channel(s)                               : 6 channels
Channel layout                           : L R C LFE Ls Rs
Sampling rate                            : 48.0 kHz
Frame rate                               : 31.250 FPS (1536 SPF)
Bit depth                                : 16 bits
Compression mode                         : Lossy
Stream size                              : 252 MiB (5%)
Language                                 : English
Service kind                             : Complete Main
Default                                  : Yes
Forced                                   : No

Text
ID                                       : 3
Format                                   : UTF-8
Codec ID                                 : S_TEXT/UTF8
Codec ID/Info                            : UTF-8 Plain Text
Duration                                 : 1 h 25 min
Bit rate                                 : 53 b/s
Count of elements                        : 1214
Stream size                              : 33.9 KiB (0%)
Language                                 : English
Default                                  : Yes
Forced                                   : No


悠悠MP4_MP4电影下载_老兵 VFW.2019.1080p.WEBRip.DD5.1.x264-CM 5.27GB悠悠MP4_MP4电影下载_老兵 VFW.2019.1080p.WEBRip.DD5.1.x264-CM 5.27GB悠悠MP4_MP4电影下载_老兵 VFW.2019.1080p.WEBRip.DD5.1.x264-CM 5.27GB


提示:如迅雷下载提示"任务出错"、"因版权无法下载",请尝试【迅雷5】
上传的附件:
最新回复 (0)
返回
本站所有资源均收集自互联网,没有提供影片资源存储, 也未参与录制、上传,若本站收录的资源无意侵犯了您的权益, 请联系邮箱:gogoimgs#gmail.com(#=@)