[2019] [欧美] [喜剧] [BD-720P] 安全空间 After.Class.2019.720p.BluRay.x264-BRMP 4.38GB

uump4 8天前 69

帖子完整标题:安全空间 After.Class.2019.720p.BluRay.x264-BRMP 4.38GB


悠悠MP4_MP4电影下载_安全空间 After.Class.2019.720p.BluRay.x264-BRMP 4.38GB

◎译  名 安全空间 / after class
◎片  名 Safe Spaces
◎年  代 2019
◎产  地 美国
◎类  别 喜剧
◎语  言 英语
◎上映日期 2019-04-29(美国)
◎IMDb评分  5.5/10 from 206 users
◎IMDb链接  https://www.imdb.com/title/tt7187768
◎豆瓣评分 0/10 from 0 users
◎豆瓣链接 https://movie.douban.com/subject/33421203/
◎片  长 94分钟
◎导  演 丹尼尔·谢克特 Daniel Schechter
◎编  剧 丹尼尔·谢克特 Daniel Schechter
◎主  演 贾斯汀·朗 Justin Long
       法兰·德瑞雪 Fran Drescher
       理查德·希夫 Richard Schiff
       凯特·贝兰特 Kate Berlant
       贝琦·安·贝克 Becky Ann Baker
       林恩·科恩 Lynn Cohen
       卡姆鲁斯·约翰逊 Camrus Johnson
       bryce romer
       tyler wladis
       达娜·埃斯科尔森 Dana Eskelson
       萨马拉·查卡拉蒂 Samrat Chakrabarti
       silvia morigi
       emily ferguson


◎标  签 美国 | 剧情 | 2010s

◎简  介  

  A NYC professor spends a week re-connecting with his family while defending his reputation over qiwan.cc controversial behavior at his college.

Video
ID                                       : 1
Format                                   : AVC
Format/Info                              : Advanced Video Codec
Format profile                           : [email protected]
Format settings                          : CABAC / 5 Ref Frames
Format settings, CABAC                   : Yes
Format settings, Reference frames        : 5 frames
Codec ID                                 : V_MPEG4/ISO/AVC
Duration                                 : 1 h 33 min
Bit rate                                 : 5 175 kb/s
Width                                    : 1 280 pixels
Height                                   : 536 pixels
Display aspect ratio                     : 2.40:1
Frame rate mode                          : Constant
Frame rate                               : 23.976 (24000/1001) FPS
Color space                              : YUV
Chroma subsampling                       : 4:2:0
Bit depth                                : 8 bits
Scan type                                : Progressive
Bits/(Pixel*Frame)                       : 0.315
Stream size                              : 3.38 GiB (77%)
Writing library                          : x264 core 159 r2991 1771b55
Encoding settings                        : cabac=1 / ref=5 / deblock=1:0:0 / analyse=0x3:0x133 / me=umh / subme=7 / psy=1 / psy_rd=1.00:0.00 / mixed_ref=1 / me_range=16 / chroma_me=1 / trellis=1 / 8x8dct=1 / cqm=0 / deadzone=21,11 / fast_pskip=0 / chroma_qp_offset=-2 / threads=17 / lookahead_threads=2 / sliced_threads=0 / nr=0 / decimate=1 / interlaced=0 / bluray_compat=0 / constrained_intra=0 / bframes=3 / b_pyramid=2 / b_adapt=1 / b_bias=0 / direct=1 / weightb=1 / open_gop=0 / weightp=2 / keyint=240 / keyint_min=23 / scenecut=40 / intra_refresh=0 / rc_lookahead=40 / rc=2pass / mbtree=1 / bitrate=5175 / ratetol=1.0 / qcomp=0.60 / qpmin=10 / qpmax=51 / qpstep=4 / cplxblur=20.0 / qblur=0.5 / ip_ratio=1.40 / aq=1:1.00
Default                                  : Yes
Forced                                   : No

Audio
ID                                       : 2
Format                                   : DTS
Format/Info                              : Digital Theater Systems
Codec ID                                 : A_DTS
Duration                                 : 1 h 33 min
Bit rate mode                            : Constant
Bit rate                                 : 1 509 kb/s
Channel(s)                               : 6 channels
Channel layout                           : C L R Ls Rs LFE
Sampling rate                            : 48.0 kHz
Frame rate                               : 93.750 FPS (512 SPF)
Bit depth                                : 24 bits
Compression mode                         : Lossy
Stream size                              : 1 010 MiB (23%)
Language                                 : English
Default                                  : Yes
Forced                                   : No

Menu
00:00:00.000                             : en:Chapter 01
00:10:33.007                             : en:Chapter 02
00:19:27.917                             : en:Chapter 03
00:31:05.530                             : en:Chapter 04
00:40:47.195                             : en:Chapter 05
00:50:55.552                             : en:Chapter 06
01:01:04.661                             : en:Chapter 07
01:09:42.178                             : en:Chapter 08
01:20:50.763                             : en:Chapter 09
01:29:57.058                             : en:Chapter 10


悠悠MP4_MP4电影下载_安全空间 After.Class.2019.720p.BluRay.x264-BRMP 4.38GB


提示:如迅雷下载提示"任务出错"、"因版权无法下载",请尝试【迅雷5】
上传的附件:
最新回复 (0)
返回
本站所有资源均收集自互联网,没有提供影片资源存储, 也未参与录制、上传,若本站收录的资源无意侵犯了您的权益, 请联系邮箱:gogoimgs#gmail.com(#=@)