[更早] [欧美] [剧情] [BD-1080P] 玩酷 Play.It.Cool.1962.1080p.BluRay.x264-GHOULS 6.57GB

uump4 2月前 106

帖子完整标题:玩酷 Play.It.Cool.1962.1080p.BluRay.x264-GHOULS 6.57GB


悠悠MP4_MP4电影下载_玩酷 Play.It.Cool.1962.1080p.BluRay.x264-GHOULS 6.57GB

◎译  名 玩酷
◎片  名 Play It Cool
◎年  代 1962
◎产  地 英国
◎类  别 剧情 / 歌舞
◎语  言 英语
◎上映日期 1962
◎IMDb评分 6.0/10 from 160 users
◎IMDb链接 https://www.imdb.com/title/tt0056353
◎豆瓣评分 0/10 from 0 users
◎豆瓣链接 https://movie.douban.com/subject/5059038/
◎片  长 82 分钟
◎导  演 迈克尔·温纳 Michael Winner
◎编  剧 Jack Henry
◎主  演 Billy Fury
      Michael Anderson Jr.
      丹尼斯·普莱斯 Dennis Price


◎简  介

  暂无相关剧情介绍
Video
ID : 1
Format : AVC
Format/Info : Advanced Video Codec
Format profile : [email protected]
Format settings : CABAC / 4 Ref Frames
Format settings, CABAC : Yes
Format settings, Reference frames : 4 frames
Codec ID : V_MPEG4/ISO/AVC
Duration : 1 h 22 min
Bit rate : 10.2 Mb/s
Width : 1 792 pixels
Height : 1 080 pixels
Display aspect ratio : 5:3
Frame rate mode : Constant
Frame rate : 24.000 FPS
Color space : YUV
Chroma subsampling : 4:2:0
Bit depth : 8 bits
Scan type : Progressive
Bits/(Pixel*Frame) : 0.220
Stream size : 5.87 GiB (90%)
Writing library : x264 core 159 r2991 1771b55
Encoding settings : cabac=1 / ref=4 / deblock=1:-3:-3 / analyse=0x3:0x133 / me=umh / subme=9 / psy=1 / psy_rd=1.00:0.00 / mixed_ref=1 / me_range=24 / chroma_me=1 / trellis=1 / 8x8dct=1 / cqm=0 / deadzone=21,11 / fast_pskip=0 / chroma_qp_offset=-2 / threads=24 / lookahead_threads=4 / sliced_threads=0 / nr=0 / decimate=1 / interlaced=0 / bluray_compat=0 / constrained_intra=0 / bframes=8 / b_pyramid=2 / b_adapt=2 / b_bias=0 / direct=3 / weightb=1 / open_gop=0 / weightp=2 / keyint=250 / keyint_min=24 / scenecut=40 / intra_refresh=0 / rc_lookahead=60 / rc=2pass / mbtree=1 / bitrate=10223 / ratetol=1.0 / qcomp=0.60 / qpmin=0 / qpmax=69 / qpstep=4 / cplxblur=20.0 / qblur=0.5 / vbv_maxrate=62500 / vbv_bufsize=78125 / nal_hrd=none / filler=0 / ip_ratio=1.40 / aq=1:1.00
Default : Yes
Forced : No

Audio
ID : 2
Format : FLAC
Format/Info : Free Lossless Audio Codec
Codec ID : A_FLAC
Duration : 1 h 22 min
Bit rate mode : Variable
Bit rate : 1 192 kb/s
Channel(s) : 2 channels
Channel layout : L R
Sampling rate : 48.0 kHz
Frame rate : 10.417 FPS (4608 SPF)
Bit depth : 24 bits
Compression mode : Lossless
Stream size : 701 MiB (10%)
Writing library : Lavf58.29.100
Language : English
Default : Yes
Forced : No

Menu
00:00:00.000 : en:Chapter 01
00:02:53.958 : en:Chapter 02
00:10:05.875 : en:Chapter 03
00:17:09.125 : en:Chapter 04
00:24:51.208 : en:Chapter 05
00:31:58.875 : en:Chapter 06
00:39:33.083 : en:Chapter 07
00:48:24.000 : en:Chapter 08
00:53:53.083 : en:Chapter 09
01:01:30.750 : en:Chapter 10
01:11:43.500 : en:Chapter 11
01:19:10.500 : en:Chapter 12

悠悠MP4_MP4电影下载_玩酷 Play.It.Cool.1962.1080p.BluRay.x264-GHOULS 6.57GB


提示:如迅雷下载提示"任务出错"、"因版权无法下载",请尝试【迅雷5】
上传的附件:
最新回复 (0)
返回
本站所有资源均收集自互联网,没有提供影片资源存储, 也未参与录制、上传,若本站收录的资源无意侵犯了您的权益, 请联系邮箱:gogoimgs#gmail.com(#=@)