[2012] [其他] [剧情] [WEB-1080P] 米洛 Milo.2012.1080p.AMZN.WEBRip.DDP2.0.x264-TEPES 3.86GB

uump4 25天前 179

帖子完整标题:米洛 Milo.2012.1080p.AMZN.WEBRip.DDP2.0.x264-TEPES 3.86GB


悠悠MP4_MP4电影下载_米洛 Milo.2012.1080p.AMZN.WEBRip.DDP2.0.x264-TEPES 3.86GB

◎译  名 米洛
◎片  名 Milo
◎年  代 2012
◎产  地 荷兰
◎类  别 剧情
◎语  言 英语
◎上映日期 2012-11-08(荷兰)
◎IMDb评分  6.4/10 from 209 users
◎IMDb链接  https://www.imdb.com/title/tt1242658
◎豆瓣评分 0/10 from 0 users
◎豆瓣链接 https://movie.douban.com/subject/10749453/
◎片  长 94分钟
◎导  演 Berend Boorsma / Roel Boorsma
◎主  演 Stuart Graham
       Laura Vasiliu
       Dolf de Vries
       Lorcan Bonner
       Charlotte Bradley


◎标  签 荷兰电影 | 荷兰 | 儿童 | M荷兰 | 荷兰电影;童年;疾病 | 电影 | 犯罪 | 剧情

◎简  介  

  米洛是一位孤独的十岁小男孩,因为“皮肤敏感”,一直生活在父亲的严格控制之下。受到第一份友谊的鼓舞,他离家出走,去参加学校的露营旅行——但他没有到达目的地。他落入了一对日渐衰老的罪犯夫妇手中,却享受到了脱离控制之后纯粹的自由,直到他了解了自己皮肤状况的真相,倍感震惊。米洛对父爱充满疑惑,他必须直面真实的自己。

◎获奖情况  

  第33届荷兰电影节(2013)
  金牛奖 最佳剪辑(提名) Marc Bechtold

Video
ID                                       : 1
Format                                   : AVC
Format/Info                              : Advanced Video Codec
Format profile                           : [email protected]
Format settings                          : CABAC / 4 Ref Frames
Format settings, CABAC                   : Yes
Format settings, Reference frames        : 4 frames
Codec ID                                 : V_MPEG4/ISO/AVC
Duration                                 : 1 h 34 min
Bit rate mode                            : Constant
Bit rate                                 : 5 611 kb/s
Nominal bit rate                         : 10 000 kb/s
Width                                    : 1 920 pixels
Height                                   : 816 pixels
Display aspect ratio                     : 2.35:1
Frame rate mode                          : Constant
Frame rate                               : 24.000 FPS
Color space                              : YUV
Chroma subsampling                       : 4:2:0
Bit depth                                : 8 bits
Scan type                                : Progressive
Bits/(Pixel*Frame)                       : 0.149
Stream size                              : 3.71 GiB (96%)
Default                                  : Yes
Forced                                   : No
Color range                              : Limited
Color primaries                          : BT.709
Transfer characteristics                 : BT.709
Matrix coefficients                      : BT.709

Audio
ID                                       : 2
Format                                   : E-AC-3
Format/Info                              : Enhanced AC-3
Commercial name                          : Dolby Digital Plus
Codec ID                                 : A_EAC3
Duration                                 : 1 h 34 min
Bit rate mode                            : Constant
Bit rate                                 : 224 kb/s
Channel(s)                               : 2 channels
Channel layout                           : L R
Sampling rate                            : 48.0 kHz
Frame rate                               : 31.250 FPS (1536 SPF)
Compression mode                         : Lossy
Stream size                              : 152 MiB (4%)
Language                                 : English
Service kind                             : Complete Main
Default                                  : Yes
Forced                                   : No

Text
ID                                       : 3
Format                                   : UTF-8
Codec ID                                 : S_TEXT/UTF8
Codec ID/Info                            : UTF-8 Plain Text
Duration                                 : 1 h 33 min
Bit rate                                 : 46 b/s
Count of elements                        : 1041
Stream size                              : 31.6 KiB (0%)
Title                                    : SDH
Language                                 : English
Default                                  : No
Forced                                   : No


悠悠MP4_MP4电影下载_米洛 Milo.2012.1080p.AMZN.WEBRip.DDP2.0.x264-TEPES 3.86GB悠悠MP4_MP4电影下载_米洛 Milo.2012.1080p.AMZN.WEBRip.DDP2.0.x264-TEPES 3.86GB悠悠MP4_MP4电影下载_米洛 Milo.2012.1080p.AMZN.WEBRip.DDP2.0.x264-TEPES 3.86GB


提示:如迅雷下载提示"任务出错"、"因版权无法下载",请尝试【迅雷5】
上传的附件:
最新回复 (0)
返回
本站所有资源均收集自互联网,没有提供影片资源存储, 也未参与录制、上传,若本站收录的资源无意侵犯了您的权益, 请联系邮箱:gogoimgs#gmail.com(#=@)