[2017] [欧美] [WEB-720P] 母亲的罪行 A.Mothers.Crime.2017.720p.AMZN.WEBRip.DDP5.1.x264-TEPES 3.26GB

uump4 2月前 298

帖子完整标题:母亲的罪行 A.Mothers.Crime.2017.720p.AMZN.WEBRip.DDP5.1.x264-TEPES 3.26GB


悠悠MP4_MP4电影下载_母亲的罪行 A.Mothers.Crime.2017.720p.AMZN.WEBRip.DDP5.1.x264-TEPES 3.26GB

◎译  名 母亲的罪行
◎片  名 A Mother's Crime
◎年  代 2017
◎产  地 美国
◎语  言 英语
◎上映日期 2017-08-21(美国)
◎IMDb评分  5.0/10 from 109 users
◎IMDb链接  https://www.imdb.com/title/tt7444708
◎豆瓣评分 0/10 from 0 users
◎豆瓣链接 https://movie.douban.com/subject/27170046/
◎片  长 90分钟
◎导  演 Farhad Mann
◎编  剧 Stephen Lyons / Ananya Menon
◎主  演 艾普尔·鲍白 April Bowlby
       Jenny Gabrielle
       Matt Page
       Brytnee Ratledge
       Allyson Harbert
       Matthew Van Wettering


◎简  介  

  Encouraged by her lover, Danielle kills her husband and goes on the lam with her infant daughter Cali. But the cops catch her and, en route to prison, she agrees to give custody of Cali to her arch rival, her sister Nikki. But on release from prison, Danielle will stop at nothing to get Cali back from Nikki's safe and healthy home.

Video
ID                                       : 1
Format                                   : AVC
Format/Info                              : Advanced Video Codec
Format profile                           : [email protected]
Format settings                          : CABAC / 4 Ref Frames
Format settings, CABAC                   : Yes
Format settings, Reference frames        : 4 frames
Codec ID                                 : V_MPEG4/ISO/AVC
Duration                                 : 1 h 28 min
Bit rate mode                            : Constant
Bit rate                                 : 4 607 kb/s
Nominal bit rate                         : 6 000 kb/s
Width                                    : 1 280 pixels
Height                                   : 720 pixels
Display aspect ratio                     : 16:9
Frame rate mode                          : Constant
Frame rate                               : 23.976 (24000/1001) FPS
Color space                              : YUV
Chroma subsampling                       : 4:2:0
Bit depth                                : 8 bits
Scan type                                : Progressive
Bits/(Pixel*Frame)                       : 0.209
Stream size                              : 2.86 GiB (88%)
Default                                  : Yes
Forced                                   : No
Color range                              : Limited
Color primaries                          : BT.709
Transfer characteristics                 : BT.709
Matrix coefficients                      : BT.709

Audio
ID                                       : 2
Format                                   : E-AC-3
Format/Info                              : Enhanced AC-3
Commercial name                          : Dolby Digital Plus
Codec ID                                 : A_EAC3
Duration                                 : 1 h 28 min
Bit rate mode                            : Constant
Bit rate                                 : 640 kb/s
Channel(s)                               : 6 channels
Channel layout                           : L R C LFE Ls Rs
Sampling rate                            : 48.0 kHz
Frame rate                               : 31.250 FPS (1536 SPF)
Compression mode                         : Lossy
Stream size                              : 406 MiB (12%)
Language                                 : English
Service kind                             : Complete Main
Default                                  : Yes
Forced                                   : No

Text
ID                                       : 3
Format                                   : UTF-8
Codec ID                                 : S_TEXT/UTF8
Codec ID/Info                            : UTF-8 Plain Text
Duration                                 : 1 h 28 min
Bit rate                                 : 57 b/s
Count of elements                        : 1316
Stream size                              : 36.9 KiB (0%)
Title                                    : SDH
Language                                 : English
Default                                  : No
Forced                                   : No


悠悠MP4_MP4电影下载_母亲的罪行 A.Mothers.Crime.2017.720p.AMZN.WEBRip.DDP5.1.x264-TEPES 3.26GB悠悠MP4_MP4电影下载_母亲的罪行 A.Mothers.Crime.2017.720p.AMZN.WEBRip.DDP5.1.x264-TEPES 3.26GB悠悠MP4_MP4电影下载_母亲的罪行 A.Mothers.Crime.2017.720p.AMZN.WEBRip.DDP5.1.x264-TEPES 3.26GB


提示:如迅雷下载提示"任务出错"、"因版权无法下载",请尝试【迅雷5】
上传的附件:
最新回复 (0)
返回
本站所有资源均收集自互联网,没有提供影片资源存储, 也未参与录制、上传,若本站收录的资源无意侵犯了您的权益, 请联系邮箱:gogoimgs#gmail.com(#=@)