[2018] [日本] [剧情] [BD-1080P] 恋如雨止 After.The.Rain.2018.JAPANESE.1080p.BluRay.x264-iKiW 9.75GB

uump4 8月前 209

帖子完整标题:恋如雨止 After.The.Rain.2018.JAPANESE.1080p.BluRay.x264-iKiW 9.75GB


悠悠MP4_MP4电影下载_恋如雨止 After.The.Rain.2018.JAPANESE.1080p.BluRay.x264-iKiW 9.75GB

◎译  名 恋如雨止 / After the rain / 爱在雨过天晴时(台)
◎片  名 恋は雨上がりのように
◎年  代 2018
◎产  地 日本
◎类  别 剧情 / 爱情
◎语  言 日语
◎上映日期 2018-05-25(日本)
◎IMDb评分  6.9/10 from 593 users
◎IMDb链接  https://www.imdb.com/title/tt7637350
◎豆瓣评分 7.3/10 from 9439 users
◎豆瓣链接 https://movie.douban.com/subject/27191173/
◎片  长 112分钟
◎导  演 永井聪 Akira Nagai
◎编  剧 眉月润 Jun Mayuzuki / 坂口理子 Riko Sakaguchi
◎主  演 小松菜奈 Nana Komatsu
       大泉洋 Y? ?izumi
       清野菜名 Nana Seino
       矶村勇斗 Hayato Isomura
       叶山奖之 Shono Hayama
       松本穗香 Honoka Matsumoto
       山本舞香 Maika Yamamoto
       滨田麻里 Mari Hamada
       户次重幸 Shigeyuki Totsugi
       吉田羊 Y? Yoshida


◎标  签 日本 | 青春 | 爱情 | 漫画改编 | 恋爱 | 2018 | 纯爱 | 成长

◎简  介  

  橘晶,高中2年级,17岁。
  不擅长表达感情的她,其实有单恋的对象,
  就是打工的家庭餐厅店长──近藤正己(45岁)。
  于青春十字路口停滞不前的她,
  与面临人生折返点的他,
  由这两人纺织而成的小小恋曲,开奏。

Video
ID                                       : 1
Format                                   : AVC
Format/Info                              : Advanced Video Codec
Format profile                           : [email protected]
Format settings                          : CABAC / 5 Ref Frames
Format settings, CABAC                   : Yes
Format settings, Reference frames        : 5 frames
Codec ID                                 : V_MPEG4/ISO/AVC
Duration                                 : 1 h 51 min
Bit rate                                 : 11.8 Mb/s
Width                                    : 1 920 pixels
Height                                   : 806 pixels
Display aspect ratio                     : 2.40:1
Frame rate mode                          : Constant
Frame rate                               : 23.976 (24000/1001) FPS
Color space                              : YUV
Chroma subsampling                       : 4:2:0
Bit depth                                : 8 bits
Scan type                                : Progressive
Bits/(Pixel*Frame)                       : 0.319
Stream size                              : 9.24 GiB (95%)
Writing library                          : x264 core 129 r2245+704+36 8e61944 tMod+MixAQ [[email protected]:2:0 X86_64]
Encoding settings                        : cabac=1 / ref=5 / deblock=1:-3:-3 / analyse=0x3:0x133 / me=umh / subme=11 / psy=1 / fade_compensate=0.00 / psy_rd=1.05:0.10 / mixed_ref=1 / me_range=64 / chroma_me=1 / trellis=2 / 8x8dct=1 / cqm=0 / deadzone=21,11 / fast_pskip=0 / chroma_qp_offset=-3 / threads=18 / lookahead_threads=3 / sliced_threads=0 / nr=0 / decimate=0 / interlaced=0 / bluray_compat=0 / constrained_intra=0 / fgo=0 / bframes=10 / b_pyramid=2 / b_adapt=2 / b_bias=0 / direct=3 / weightb=1 / open_gop=0 / weightp=2 / keyint=250 / keyint_min=23 / scenecut=40 / intra_refresh=0 / rc=2pass / mbtree=0 / bitrate=11834 / ratetol=1.0 / qcomp=0.70 / qpmin=0 / qpmax=69 / qpstep=4 / cplxblur=20.0 / qblur=0.5 / ip_ratio=1.40 / pb_ratio=1.30 / aq=1 / aq-strength=0.90 / aq-sensitivity=10.00 / aq-ifactor=1.00 / aq-pfactor=1.00 / aq-bfactor=1.00 / aq2=0
Language                                 : Japanese
Default                                  : Yes
Forced                                   : No

Audio
ID                                       : 2
Format                                   : AC-3
Format/Info                              : Audio Coding 3
Commercial name                          : Dolby Digital
Codec ID                                 : A_AC3
Duration                                 : 1 h 51 min
Bit rate mode                            : Constant
Bit rate                                 : 640 kb/s
Channel(s)                               : 6 channels
Channel layout                           : L R C LFE Ls Rs
Sampling rate                            : 48.0 kHz
Frame rate                               : 31.250 FPS (1536 SPF)
Bit depth                                : 16 bits
Compression mode                         : Lossy
Stream size                              : 512 MiB (5%)
Language                                 : Japanese
Service kind                             : Complete Main
Default                                  : Yes
Forced                                   : No

Text #1
ID                                       : 3
Format                                   : UTF-8
Codec ID                                 : S_TEXT/UTF8
Codec ID/Info                            : UTF-8 Plain Text
Duration                                 : 1 h 47 min
Bit rate                                 : 47 b/s
Count of elements                        : 1281
Stream size                              : 37.2 KiB (0%)
Language                                 : English
Default                                  : Yes
Forced                                   : No

Text #2
ID                                       : 4
Format                                   : ASS
Codec ID                                 : S_TEXT/ASS
Codec ID/Info                            : Advanced Sub Station Alpha
Duration                                 : 1 h 50 min
Bit rate                                 : 91 b/s
Count of elements                        : 1534
Compression mode                         : Lossless
Stream size                              : 74.4 KiB (0%)
Title                                    : Simplified
Language                                 : Chinese
Default                                  : No
Forced                                   : No

Text #3
ID                                       : 5
Format                                   : ASS
Codec ID                                 : S_TEXT/ASS
Codec ID/Info                            : Advanced Sub Station Alpha
Duration                                 : 1 h 50 min
Bit rate                                 : 91 b/s
Count of elements                        : 1534
Compression mode                         : Lossless
Stream size                              : 74.4 KiB (0%)
Title                                    : Traditional
Language                                 : Chinese
Default                                  : No
Forced                                   : No

Menu
00:00:00.000                             : zh:第 01 章
00:12:12.565                             : zh:第 02 章
00:21:10.102                             : zh:第 03 章
00:29:04.409                             : zh:第 04 章
00:38:10.413                             : zh:第 05 章
00:48:04.006                             : zh:第 06 章
00:56:29.928                             : zh:第 07 章
01:05:48.319                             : zh:第 08 章
01:18:09.476                             : zh:第 09 章
01:26:58.379                             : zh:第 10 章
01:37:25.256                             : zh:第 11 章
01:44:40.899                             : zh:第 12 章


悠悠MP4_MP4电影下载_恋如雨止 After.The.Rain.2018.JAPANESE.1080p.BluRay.x264-iKiW 9.75GB悠悠MP4_MP4电影下载_恋如雨止 After.The.Rain.2018.JAPANESE.1080p.BluRay.x264-iKiW 9.75GB悠悠MP4_MP4电影下载_恋如雨止 After.The.Rain.2018.JAPANESE.1080p.BluRay.x264-iKiW 9.75GB


提示:如迅雷下载提示"任务出错"、"因版权无法下载",请尝试【迅雷5】
上传的附件:
最新回复 (0)
返回
本站所有资源均收集自互联网,没有提供影片资源存储, 也未参与录制、上传,若本站收录的资源无意侵犯了您的权益, 请联系邮箱:gogoimgs#gmail.com(#=@)