[2016] [日本] [惊悚] [BD-1080P] 彼岸岛 Deluxe Nirvana.Island.The.Last.47.Days.2016.JAPANESE.1080p.BluRay.x264.DTS-i

uump4 1月前 94

帖子完整标题:彼岸岛 Deluxe Nirvana.Island.The.Last.47.Days.2016.JAPANESE.1080p.BluRay.x264.DTS-iKiW 10.99GB


悠悠MP4_MP4电影下载_彼岸岛 Deluxe Nirvana.Island.The.Last.47.Days.2016.JAPANESE.1080p.BluRay.x264.DTS-i

◎译  名 彼岸岛 Deluxe / Higanjima: Deluxe
◎片  名 彼岸島 デラックス
◎年  代 2016
◎产  地 日本
◎类  别 惊悚
◎语  言 日语
◎上映日期 2016-10-15(日本)
◎IMDb评分  5.3/10 from 43 users
◎IMDb链接  https://www.imdb.com/title/tt5238370
◎豆瓣评分 4.4/10 from 371 users
◎豆瓣链接 https://movie.douban.com/subject/25961123/
◎导  演 渡边武 Takeshi Watanabe
◎编  剧 佐藤佐吉 Sakichi Sat? / 伊藤秀裕
◎主  演 白石隼也 Shun'ya Shiraishi
       铃木亮平 Ryohei Suzuki
       樱井美南 Minami Sakurai
       石桥莲司 Renji Ishibashi
       远藤雄弥 Yuya Endo
       阿部翔平
       森冈龙 Ry? Morioka
       栗原类 Louis Kurihara
       佐藤めぐみ
       水崎绫女 Ayame Misaki
       藤重政孝
       上間凜子
       高野人母美
       柳ゆり菜


◎标  签 日本 | 惊悚 | 彼岸島 | 日本电影 | 恐怖 | 漫画改编 | 2016 | 奇幻

◎简  介  

  无人生还的“彼岸島”,残留着吸血鬼的传说。这个岛禁断的封印被解开,岛上出现了吸血鬼、邪鬼以及巨大的异样妖怪,岛民迎来了危机状况。明为了寻找失踪的哥哥的笃,和伙伴们一起前往了这座岛。明一行人一起战斗抵抗妖怪……

Video
ID                                       : 1
Format                                   : AVC
Format/Info                              : Advanced Video Codec
Format profile                           : [email protected]
Format settings                          : CABAC / 4 Ref Frames
Format settings, CABAC                   : Yes
Format settings, Reference frames        : 4 frames
Codec ID                                 : V_MPEG4/ISO/AVC
Duration                                 : 1 h 57 min
Bit rate                                 : 13.0 Mb/s
Width                                    : 1 920 pixels
Height                                   : 1 036 pixels
Display aspect ratio                     : 1.85:1
Frame rate mode                          : Constant
Frame rate                               : 23.976 (24000/1001) FPS
Color space                              : YUV
Chroma subsampling                       : 4:2:0
Bit depth                                : 8 bits
Scan type                                : Progressive
Bits/(Pixel*Frame)                       : 0.272
Stream size                              : 10.6 GiB (97%)
Writing library                          : x264 core 129 r2245+704+36 8e61944 tMod+MixAQ [[email protected]:2:0 X86_64]
Encoding settings                        : cabac=1 / ref=4 / deblock=1:-3:-3 / analyse=0x3:0x133 / me=umh / subme=11 / psy=1 / fade_compensate=0.00 / psy_rd=1.05:0.10 / mixed_ref=1 / me_range=32 / chroma_me=1 / trellis=2 / 8x8dct=1 / cqm=0 / deadzone=21,11 / fast_pskip=0 / chroma_qp_offset=-3 / threads=18 / lookahead_threads=3 / sliced_threads=0 / nr=0 / decimate=0 / interlaced=0 / bluray_compat=0 / constrained_intra=0 / fgo=0 / bframes=10 / b_pyramid=2 / b_adapt=2 / b_bias=0 / direct=3 / weightb=1 / open_gop=0 / weightp=2 / keyint=250 / keyint_min=23 / scenecut=40 / intra_refresh=0 / rc_lookahead=80 / rc=2pass / mbtree=1 / bitrate=12956 / ratetol=1.0 / qcomp=0.70 / qpmin=0 / qpmax=69 / qpstep=4 / cplxblur=20.0 / qblur=0.5 / ip_ratio=1.40 / aq=1 / aq-strength=0.85 / aq-sensitivity=10.00 / aq-ifactor=1.00 / aq-pfactor=1.00 / aq-bfactor=1.00 / aq2=0
Language                                 : Japanese
Default                                  : Yes
Forced                                   : No

Audio
ID                                       : 2
Format                                   : AC-3
Format/Info                              : Audio Coding 3
Commercial name                          : Dolby Digital
Codec ID                                 : A_AC3
Duration                                 : 1 h 57 min
Bit rate mode                            : Constant
Bit rate                                 : 448 kb/s
Channel(s)                               : 6 channels
Channel layout                           : L R C LFE Ls Rs
Sampling rate                            : 48.0 kHz
Frame rate                               : 31.250 FPS (1536 SPF)
Bit depth                                : 16 bits
Compression mode                         : Lossy
Stream size                              : 376 MiB (3%)
Language                                 : Japanese
Service kind                             : Complete Main
Default                                  : Yes
Forced                                   : No

Text #1
ID                                       : 3
Format                                   : UTF-8
Codec ID                                 : S_TEXT/UTF8
Codec ID/Info                            : UTF-8 Plain Text
Duration                                 : 1 h 50 min
Bit rate                                 : 16 b/s
Count of elements                        : 808
Stream size                              : 13.0 KiB (0%)
Language                                 : English
Default                                  : Yes
Forced                                   : No

Text #2
ID                                       : 4
Format                                   : ASS
Codec ID                                 : S_TEXT/ASS
Codec ID/Info                            : Advanced Sub Station Alpha
Duration                                 : 1 h 50 min
Bit rate                                 : 49 b/s
Count of elements                        : 881
Compression mode                         : Lossless
Stream size                              : 40.5 KiB (0%)
Language                                 : Chinese
Default                                  : No
Forced                                   : No

Menu
00:00:00.000                             : en:00:00:00.000
00:10:56.989                             : en:00:10:56.989
00:25:42.457                             : en:00:25:42.457
00:39:22.359                             : en:00:39:22.359
00:50:10.132                             : en:00:50:10.132
01:06:54.176                             : en:01:06:54.176
01:21:06.319                             : en:01:21:06.319
01:46:12.991                             : en:01:46:12.991
01:57:20.533                             : en:01:57:20.533


悠悠MP4_MP4电影下载_彼岸岛 Deluxe Nirvana.Island.The.Last.47.Days.2016.JAPANESE.1080p.BluRay.x264.DTS-i悠悠MP4_MP4电影下载_彼岸岛 Deluxe Nirvana.Island.The.Last.47.Days.2016.JAPANESE.1080p.BluRay.x264.DTS-i悠悠MP4_MP4电影下载_彼岸岛 Deluxe Nirvana.Island.The.Last.47.Days.2016.JAPANESE.1080p.BluRay.x264.DTS-i


提示:如迅雷下载提示"任务出错"、"因版权无法下载",请尝试【迅雷5】
上传的附件:
最新回复 (0)
返回
本站所有资源均收集自互联网,没有提供影片资源存储, 也未参与录制、上传,若本站收录的资源无意侵犯了您的权益, 请联系邮箱:gogoimgs#gmail.com(#=@)