[2012] [欧美] [科幻] [WEB-1080P] 伊斯顿的文章 Eastons.Article.2012.1080p.WEB-DL.DD5.1.H264-FGT 3.08GB

uump4 1月前 71

帖子完整标题:伊斯顿的文章 Eastons.Article.2012.1080p.WEB-DL.DD5.1.H264-FGT 3.08GB


悠悠MP4_MP4电影下载_伊斯顿的文章 Eastons.Article.2012.1080p.WEB-DL.DD5.1.H264-FGT 3.08GB

◎译  名 伊斯顿的文章 / Black Web / 黑网
◎片  名 Easton’s Article
◎年  代 2012
◎产  地 美国
◎类  别 科幻 / 悬疑 / 惊悚
◎语  言 英语
◎上映日期 2012-06-08
◎IMDb评分 4.4/10 from 156 users
◎IMDb链接 https://www.imdb.com/title/tt2091288
◎豆瓣评分 0/10 from 0 users
◎豆瓣链接 https://movie.douban.com/subject/25721993/
◎片  长 89分钟
◎导  演 Tim Connery
◎编  剧 Tim Connery
◎主  演 Chad Meyer
      Kristina Johnson


◎标  签 科幻 | 美国 | 電影 | 美国电影 | 悬疑

◎简  介

  伊斯顿的文章是一部科幻悬疑电影。
Video
ID : 1
Format : AVC
Format/Info : Advanced Video Codec
Format profile : [email protected]
Format settings : CABAC / 4 Ref Frames
Format settings, CABAC : Yes
Format settings, Reference frames : 4 frames
Codec ID : V_MPEG4/ISO/AVC
Duration : 1 h 28 min
Bit rate : 4 582 kb/s
Width : 1 920 pixels
Height : 816 pixels
Display aspect ratio : 2.35:1
Frame rate mode : Constant
Frame rate : 23.976 (24000/1001) FPS
Color space : YUV
Chroma subsampling : 4:2:0
Bit depth : 8 bits
Scan type : Progressive
Bits/(Pixel*Frame) : 0.122
Stream size : 2.84 GiB (92%)
Title : Eastons.Article.2012.1080p.WEB-DL.DD5.1.H.264-FGT
Default : Yes
Forced : No
Color range : Limited
Color primaries : BT.709
Transfer characteristics : BT.709
Matrix coefficients : BT.709

Audio
ID : 2
Format : AC-3
Format/Info : Audio Coding 3
Commercial name : Dolby Digital
Codec ID : A_AC3
Duration : 1 h 28 min
Bit rate mode : Constant
Bit rate : 384 kb/s
Channel(s) : 6 channels
Channel layout : L R C LFE Ls Rs
Sampling rate : 48.0 kHz
Frame rate : 31.250 FPS (1536 SPF)
Bit depth : 16 bits
Compression mode : Lossy
Stream size : 244 MiB (8%)
Title : Eastons.Article.2012.1080p.WEB-DL.DD5.1.H.264-FGT
Language : English
Service kind : Complete Main
Default : Yes
Forced : No

Text
ID : 3
Format : UTF-8
Codec ID : S_TEXT/UTF8
Codec ID/Info : UTF-8 Plain Text
Duration : 1 h 24 min
Bit rate : 40 b/s
Count of elements : 1299
Stream size : 25.0 KiB (0%)
Language : English
Default : Yes
Forced : No

Menu
00:00:00.000 : en:Chapter 1
00:10:56.000 : en:Chapter 2
00:20:13.000 : en:Chapter 3
00:34:43.000 : en:Chapter 4
00:43:46.000 : en:Chapter 5
00:58:48.000 : en:Chapter 6
01:07:27.000 : en:Chapter 7
01:21:50.000 : en:Chapter 8

悠悠MP4_MP4电影下载_伊斯顿的文章 Eastons.Article.2012.1080p.WEB-DL.DD5.1.H264-FGT 3.08GB悠悠MP4_MP4电影下载_伊斯顿的文章 Eastons.Article.2012.1080p.WEB-DL.DD5.1.H264-FGT 3.08GB悠悠MP4_MP4电影下载_伊斯顿的文章 Eastons.Article.2012.1080p.WEB-DL.DD5.1.H264-FGT 3.08GB


提示:如迅雷下载提示"任务出错"、"因版权无法下载",请尝试【迅雷5】
上传的附件:
最新回复 (0)
返回
本站所有资源均收集自互联网,没有提供影片资源存储, 也未参与录制、上传,若本站收录的资源无意侵犯了您的权益, 请联系邮箱:gogoimgs#gmail.com(#=@)