[2014] [欧美] [剧情] [WEB-1080P] 跳出我天地音乐剧 Billy.Elliot.The.Musical.Live.2014.1080p.AMZN.WEBRip.DDP2.0.x264-monkee

uump4 7月前 193

帖子完整标题:跳出我天地音乐剧 Billy.Elliot.The.Musical.Live.2014.1080p.AMZN.WEBRip.DDP2.0.x264-monkee 11.29GB


悠悠MP4_MP4电影下载_跳出我天地音乐剧 Billy.Elliot.The.Musical.Live.2014.1080p.AMZN.WEBRip.DDP2.0.x264-monkee

◎译  名 跳出我天地音乐剧 / Billy Elliot the Musical Live
◎片  名 Billy Elliot the Musical
◎年  代 2014
◎产  地 英国
◎类  别 剧情 / 喜剧 / 音乐
◎语  言 英语
◎上映日期 2014-09-28
◎IMDb评分  8.5/10 from 1226 users
◎IMDb链接  https://www.imdb.com/title/tt4085696
◎豆瓣评分 9.4/10 from 889 users
◎豆瓣链接 https://movie.douban.com/subject/26264388/
◎片  长 169分钟
◎导  演 史蒂芬·戴德利 Stephen Daldry
◎编  剧 李·哈尔 Lee Hall
◎主  演 Elliott Hanna
       鲁茜·亨肖 Ruthie Henshall
       Deka Walmsley
       Ann Emery
       Chris Grahamson
       Liam Mower
       Howard Crossley
       Alan Mehdizadeh


◎标  签 音乐剧 | 英国 | 音乐 | Musical | 舞蹈 | 2014 | 亲情 | 人生

◎简  介  

  A talented young dancer has to learn to fight for his dream despite social and parental disapproval.

Video
ID                                       : 1
Format                                   : AVC
Format/Info                              : Advanced Video Codec
Format profile                           : [email protected]
Format settings                          : CABAC / 4 Ref Frames
Format settings, CABAC                   : Yes
Format settings, Reference frames        : 4 frames
Codec ID                                 : V_MPEG4/ISO/AVC
Duration                                 : 2 h 49 min
Bit rate mode                            : Variable
Bit rate                                 : 9 314 kb/s
Maximum bit rate                         : 15.0 Mb/s
Width                                    : 1 920 pixels
Height                                   : 1 080 pixels
Display aspect ratio                     : 16:9
Frame rate mode                          : Constant
Frame rate                               : 23.976 (24000/1001) FPS
Color space                              : YUV
Chroma subsampling                       : 4:2:0
Bit depth                                : 8 bits
Scan type                                : Progressive
Bits/(Pixel*Frame)                       : 0.187
Stream size                              : 11.0 GiB (98%)
Default                                  : Yes
Forced                                   : No
Color range                              : Limited
Color primaries                          : BT.709
Transfer characteristics                 : BT.709
Matrix coefficients                      : BT.709

Audio
ID                                       : 2
Format                                   : E-AC-3
Format/Info                              : Enhanced AC-3
Commercial name                          : Dolby Digital Plus
Codec ID                                 : A_EAC3
Duration                                 : 2 h 49 min
Bit rate mode                            : Constant
Bit rate                                 : 224 kb/s
Channel(s)                               : 2 channels
Channel layout                           : L R
Sampling rate                            : 48.0 kHz
Frame rate                               : 31.250 FPS (1536 SPF)
Compression mode                         : Lossy
Stream size                              : 271 MiB (2%)
Language                                 : English
Service kind                             : Complete Main
Default                                  : Yes
Forced                                   : No

Text
ID                                       : 3
Format                                   : UTF-8
Codec ID                                 : S_TEXT/UTF8
Codec ID/Info                            : UTF-8 Plain Text
Duration                                 : 2 h 45 min
Bit rate                                 : 61 b/s
Count of elements                        : 2296
Stream size                              : 74.7 KiB (0%)
Language                                 : English
Default                                  : No
Forced                                   : No


悠悠MP4_MP4电影下载_跳出我天地音乐剧 Billy.Elliot.The.Musical.Live.2014.1080p.AMZN.WEBRip.DDP2.0.x264-monkee悠悠MP4_MP4电影下载_跳出我天地音乐剧 Billy.Elliot.The.Musical.Live.2014.1080p.AMZN.WEBRip.DDP2.0.x264-monkee悠悠MP4_MP4电影下载_跳出我天地音乐剧 Billy.Elliot.The.Musical.Live.2014.1080p.AMZN.WEBRip.DDP2.0.x264-monkee悠悠MP4_MP4电影下载_跳出我天地音乐剧 Billy.Elliot.The.Musical.Live.2014.1080p.AMZN.WEBRip.DDP2.0.x264-monkee悠悠MP4_MP4电影下载_跳出我天地音乐剧 Billy.Elliot.The.Musical.Live.2014.1080p.AMZN.WEBRip.DDP2.0.x264-monkee悠悠MP4_MP4电影下载_跳出我天地音乐剧 Billy.Elliot.The.Musical.Live.2014.1080p.AMZN.WEBRip.DDP2.0.x264-monkee


提示:如迅雷下载提示"任务出错"、"因版权无法下载",请尝试【迅雷5】
上传的附件:
最新回复 (0)
返回
本站所有资源均收集自互联网,没有提供影片资源存储, 也未参与录制、上传,若本站收录的资源无意侵犯了您的权益, 请联系邮箱:gogoimgs#gmail.com(#=@)