[更早] [欧美] [剧情] [WEB-1080P] 香水 Perfume.2001.1080p.AMZN.WEBRip.DDP2.0.x264-monkee 9.73GB

uump4 7天前 269

帖子完整标题:香水 Perfume.2001.1080p.AMZN.WEBRip.DDP2.0.x264-monkee 9.73GB


悠悠MP4_MP4电影下载_香水 Perfume.2001.1080p.AMZN.WEBRip.DDP2.0.x264-monkee 9.73GB

◎译  名 香水
◎片  名 Perfume
◎年  代 2001
◎产  地 美国
◎类  别 剧情
◎语  言 英语
◎上映日期 2001-01-26
◎IMDb评分  3.4/10 from 857 users
◎IMDb链接  https://www.imdb.com/title/tt0245356
◎豆瓣评分 4.7/10 from 79 users
◎豆瓣链接 https://movie.douban.com/subject/3060385/
◎片  长 106 分钟
◎导  演 Michael Rymer / Hunter Carson
◎编  剧 Michael Rymer / L.M. Kit Carson
◎主  演 安吉拉·贝蒂斯 Angela Bettis
       莫瑞娜·巴卡琳 Morena Baccarin


◎标  签 美国 | 电影●美国 | 美国电影 | 情感 | 太不幸了 | 人生 | 家庭 | 如何应对变化

◎简  介  

  "Perfume" chronicles one week in the lives of over a dozen people involved in the magazine and entertainment business of New York City. The central characters include Italian designer Lorenzo Mancini who learns that he"s dying from cancer and decides to get his affairs in order with his wife Irine and his business partner Guido. Lorenzo"s son Mario is a recording promoter who"s latest client is hip-hop rapper J.B.. Roberta is a designer hard-pressed to fill out a latest dress design for the next Broadway show her group is putting on. Other characters are Jamie, a crafty agent whose latest client, Camille finds success but affects their relationship in ways he never planned and fails to deal with. Leese Hotton is a has-been model/actress trying to make a comeback into the spotlight......

Video
ID                                       : 1
Format                                   : AVC
Format/Info                              : Advanced Video Codec
Format profile                           : [email protected]
Format settings                          : CABAC / 4 Ref Frames
Format settings, CABAC                   : Yes
Format settings, Reference frames        : 4 frames
Codec ID                                 : V_MPEG4/ISO/AVC
Duration                                 : 1 h 46 min
Bit rate mode                            : Variable
Bit rate                                 : 12.8 Mb/s
Maximum bit rate                         : 15.0 Mb/s
Width                                    : 1 920 pixels
Height                                   : 1 080 pixels
Display aspect ratio                     : 16:9
Frame rate mode                          : Constant
Frame rate                               : 23.976 (24000/1001) FPS
Color space                              : YUV
Chroma subsampling                       : 4:2:0
Bit depth                                : 8 bits
Scan type                                : Progressive
Bits/(Pixel*Frame)                       : 0.258
Stream size                              : 9.56 GiB (98%)
Writing library                          : x264 core 148 r2623 d5b2374
Encoding settings                        : cabac=1 / ref=4 / deblock=1:-1:-1 / analyse=0x3:0x133 / me=umh / subme=9 / psy=1 / psy_rd=1.00:0.15 / mixed_ref=1 / me_range=24 / chroma_me=1 / trellis=2 / 8x8dct=1 / cqm=0 / deadzone=21,11 / fast_pskip=1 / chroma_qp_offset=-3 / threads=34 / lookahead_threads=5 / sliced_threads=0 / nr=150 / decimate=1 / interlaced=0 / bluray_compat=0 / constrained_intra=0 / bframes=8 / b_pyramid=2 / b_adapt=2 / b_bias=0 / direct=3 / weightb=1 / open_gop=0 / weightp=2 / keyint=120 / keyint_min=61 / scenecut=0 / intra_refresh=0 / rc_lookahead=120 / rc=crf / mbtree=1 / crf=18.0 / qcomp=0.60 / qpmin=0 / qpmax=69 / qpstep=4 / vbv_maxrate=15000 / vbv_bufsize=31250 / crf_max=0.0 / nal_hrd=vbr / filler=0 / ip_ratio=1.40 / aq=3:1.00
Default                                  : Yes
Forced                                   : No
Color range                              : Limited
Color primaries                          : BT.709
Transfer characteristics                 : BT.709
Matrix coefficients                      : BT.709

Audio
ID                                       : 2
Format                                   : E-AC-3
Format/Info                              : Enhanced AC-3
Commercial name                          : Dolby Digital Plus
Codec ID                                 : A_EAC3
Duration                                 : 1 h 46 min
Bit rate mode                            : Constant
Bit rate                                 : 224 kb/s
Channel(s)                               : 2 channels
Channel layout                           : L R
Sampling rate                            : 48.0 kHz
Frame rate                               : 31.250 FPS (1536 SPF)
Compression mode                         : Lossy
Stream size                              : 171 MiB (2%)
Language                                 : English
Service kind                             : Complete Main
Default                                  : Yes
Forced                                   : No

Text
ID                                       : 3
Format                                   : UTF-8
Codec ID                                 : S_TEXT/UTF8
Codec ID/Info                            : UTF-8 Plain Text
Duration                                 : 1 h 44 min
Bit rate                                 : 89 b/s
Count of elements                        : 1854
Stream size                              : 68.0 KiB (0%)
Language                                 : English
Default                                  : No
Forced                                   : No


悠悠MP4_MP4电影下载_香水 Perfume.2001.1080p.AMZN.WEBRip.DDP2.0.x264-monkee 9.73GB悠悠MP4_MP4电影下载_香水 Perfume.2001.1080p.AMZN.WEBRip.DDP2.0.x264-monkee 9.73GB悠悠MP4_MP4电影下载_香水 Perfume.2001.1080p.AMZN.WEBRip.DDP2.0.x264-monkee 9.73GB悠悠MP4_MP4电影下载_香水 Perfume.2001.1080p.AMZN.WEBRip.DDP2.0.x264-monkee 9.73GB悠悠MP4_MP4电影下载_香水 Perfume.2001.1080p.AMZN.WEBRip.DDP2.0.x264-monkee 9.73GB悠悠MP4_MP4电影下载_香水 Perfume.2001.1080p.AMZN.WEBRip.DDP2.0.x264-monkee 9.73GB


提示:如迅雷下载提示"任务出错"、"因版权无法下载",请尝试【迅雷5】
上传的附件:
最新回复 (0)
返回
本站所有资源均收集自互联网,没有提供影片资源存储, 也未参与录制、上传,若本站收录的资源无意侵犯了您的权益, 请联系邮箱:gogoimgs#gmail.com(#=@)