[2018] [欧美] [其他] [WEB-1080P] 收集尘埃记录2 Records.Collecting.Dust.II.2018.1080p.AMZN.WEBRip.DDP2.0.x264-QOQ 3.81GB

uump4 6月前 260

帖子完整标题:收集尘埃记录2 Records.Collecting.Dust.II.2018.1080p.AMZN.WEBRip.DDP2.0.x264-QOQ 3.81GB


悠悠MP4_MP4电影下载_收集尘埃记录2 Records.Collecting.Dust.II.2018.1080p.AMZN.WEBRip.DDP2.0.x264-QOQ 3.81GB

◎译  名 收集尘埃记录2
◎片  名 Records Collecting Dust II
◎年  代 2018
◎产  地 美国
◎类  别 纪录片 / 音乐
◎语  言 英语
◎上映日期 2018-10-12(美国)
◎IMDb评分  5.7/10 from 22 users
◎IMDb链接  https://www.imdb.com/title/tt9379030
◎豆瓣评分 0/10 from 0 users
◎豆瓣链接 https://movie.douban.com/subject/30454567/
◎片  长 78分钟
◎导  演 Jason Blackmore
◎编  剧 Jason Blackmore / Eric Howarth
◎主  演 Brian Baker
       Paul Bearer
       Richie Birkenhead
       Curtis Casella


◎标  签 Punk | Music | Documentary | 2018 | 2010s

◎简  介  

  Jason Blackmore and the crew are back, but this time have taken these themes and underlying questions to punk musicians of the East Coast of the United State.

Video
ID                                       : 1
Format                                   : AVC
Format/Info                              : Advanced Video Codec
Format profile                           : [email protected]
Format settings                          : CABAC / 4 Ref Frames
Format settings, CABAC                   : Yes
Format settings, Reference frames        : 4 frames
Codec ID                                 : V_MPEG4/ISO/AVC
Duration                                 : 1 h 18 min
Bit rate mode                            : Constant
Bit rate                                 : 6 745 kb/s
Nominal bit rate                         : 10 000 kb/s
Width                                    : 1 920 pixels
Height                                   : 1 080 pixels
Display aspect ratio                     : 16:9
Frame rate mode                          : Constant
Frame rate                               : 23.976 (24000/1001) FPS
Color space                              : YUV
Chroma subsampling                       : 4:2:0
Bit depth                                : 8 bits
Scan type                                : Progressive
Bits/(Pixel*Frame)                       : 0.136
Stream size                              : 3.69 GiB (97%)
Default                                  : Yes
Forced                                   : No
Color range                              : Limited
Color primaries                          : BT.709
Transfer characteristics                 : BT.709
Matrix coefficients                      : BT.709

Audio
ID                                       : 2
Format                                   : E-AC-3
Format/Info                              : Enhanced AC-3
Commercial name                          : Dolby Digital Plus
Codec ID                                 : A_EAC3
Duration                                 : 1 h 18 min
Bit rate mode                            : Constant
Bit rate                                 : 224 kb/s
Channel(s)                               : 2 channels
Channel layout                           : L R
Sampling rate                            : 48.0 kHz
Frame rate                               : 31.250 FPS (1536 SPF)
Compression mode                         : Lossy
Stream size                              : 125 MiB (3%)
Language                                 : English
Service kind                             : Complete Main
Default                                  : Yes
Forced                                   : No

Text #1
ID                                       : 3
Format                                   : UTF-8
Codec ID                                 : S_TEXT/UTF8
Codec ID/Info                            : UTF-8 Plain Text
Duration                                 : 1 h 14 min
Bit rate                                 : 106 b/s
Count of elements                        : 1364
Stream size                              : 58.1 KiB (0%)
Language                                 : English
Default                                  : No
Forced                                   : No

Text #2
ID                                       : 4
Format                                   : UTF-8
Codec ID                                 : S_TEXT/UTF8
Codec ID/Info                            : UTF-8 Plain Text
Duration                                 : 1 h 15 min
Bit rate                                 : 105 b/s
Count of elements                        : 1374
Stream size                              : 58.5 KiB (0%)
Title                                    : SDH
Language                                 : English
Default                                  : No
Forced                                   : No


悠悠MP4_MP4电影下载_收集尘埃记录2 Records.Collecting.Dust.II.2018.1080p.AMZN.WEBRip.DDP2.0.x264-QOQ 3.81GB悠悠MP4_MP4电影下载_收集尘埃记录2 Records.Collecting.Dust.II.2018.1080p.AMZN.WEBRip.DDP2.0.x264-QOQ 3.81GB悠悠MP4_MP4电影下载_收集尘埃记录2 Records.Collecting.Dust.II.2018.1080p.AMZN.WEBRip.DDP2.0.x264-QOQ 3.81GB


提示:如迅雷下载提示"任务出错"、"因版权无法下载",请尝试【迅雷5】
上传的附件:
最新回复 (0)
返回
本站所有资源均收集自互联网,没有提供影片资源存储, 也未参与录制、上传,若本站收录的资源无意侵犯了您的权益, 请联系邮箱:gogoimgs#gmail.com(#=@)