[2018] [欧美] [喜剧] [WEB-1080P] 违约 Broken.Contract.2018.1080p.AMZN.WEBRip.DDP2.0.x264-CM 3.51GB

uump4 6月前 263

帖子完整标题:违约 Broken.Contract.2018.1080p.AMZN.WEBRip.DDP2.0.x264-CM 3.51GB


悠悠MP4_MP4电影下载_违约 Broken.Contract.2018.1080p.AMZN.WEBRip.DDP2.0.x264-CM 3.51GB

◎译  名 违约
◎片  名 Broken Contract
◎年  代 2018
◎产  地 美国
◎类  别 喜剧 / 动作 / 犯罪
◎语  言 英语
◎上映日期 2018-06-22(澳大利亚)
◎IMDb评分  3.8/10 from 110 users
◎IMDb链接  https://www.imdb.com/title/tt3848600
◎豆瓣评分 0/10 from 0 users
◎豆瓣链接 https://movie.douban.com/subject/30381932/
◎导  演 James Pentecost
◎编  剧 James Pentecost
◎主  演 Mona Afshar
       Esther Anderson
       Kelsie Anderson
       Full Cast & Crew


◎标  签 动作 | 美国 | 2018 | 犯罪 | 老子教儿子杀人技术 | 美国电影 | 喜剧 | [歐美]

◎简  介  

  When Max, a down on his luck strip club owner, has his life and livelihood threatened by local gangsters, he turns to his wife's connections for help and hires a hitman to solve the problem once and for all. But before long, Max is blinded by his newfound power and his family finds him spinning off the rails as the body count piles up.
  —Hayden Fortescue

Video
ID                                       : 1
Format                                   : AVC
Format/Info                              : Advanced Video Codec
Format profile                           : [email protected]
Format settings                          : CABAC / 4 Ref Frames
Format settings, CABAC                   : Yes
Format settings, Reference frames        : 4 frames
Codec ID                                 : V_MPEG4/ISO/AVC
Duration                                 : 1 h 34 min
Bit rate                                 : 5 078 kb/s
Width                                    : 1 920 pixels
Height                                   : 1 040 pixels
Display aspect ratio                     : 1.85:1
Frame rate mode                          : Constant
Frame rate                               : 24.000 FPS
Color space                              : YUV
Chroma subsampling                       : 4:2:0
Bit depth                                : 8 bits
Scan type                                : Progressive
Bits/(Pixel*Frame)                       : 0.106
Stream size                              : 3.36 GiB (96%)
Default                                  : Yes
Forced                                   : No
Color range                              : Limited
Color primaries                          : BT.709
Transfer characteristics                 : BT.709
Matrix coefficients                      : BT.709

Audio
ID                                       : 2
Format                                   : E-AC-3
Format/Info                              : Enhanced AC-3
Commercial name                          : Dolby Digital Plus
Codec ID                                 : A_EAC3
Duration                                 : 1 h 34 min
Bit rate mode                            : Constant
Bit rate                                 : 224 kb/s
Channel(s)                               : 2 channels
Channel layout                           : L R
Sampling rate                            : 48.0 kHz
Frame rate                               : 31.250 FPS (1536 SPF)
Compression mode                         : Lossy
Stream size                              : 152 MiB (4%)
Language                                 : English
Service kind                             : Complete Main
Default                                  : Yes
Forced                                   : No

Text
ID                                       : 3
Format                                   : UTF-8
Codec ID                                 : S_TEXT/UTF8
Codec ID/Info                            : UTF-8 Plain Text
Duration                                 : 1 h 34 min
Bit rate                                 : 56 b/s
Count of elements                        : 1426
Stream size                              : 39.1 KiB (0%)
Language                                 : English
Default                                  : Yes
Forced                                   : No


悠悠MP4_MP4电影下载_违约 Broken.Contract.2018.1080p.AMZN.WEBRip.DDP2.0.x264-CM 3.51GB悠悠MP4_MP4电影下载_违约 Broken.Contract.2018.1080p.AMZN.WEBRip.DDP2.0.x264-CM 3.51GB悠悠MP4_MP4电影下载_违约 Broken.Contract.2018.1080p.AMZN.WEBRip.DDP2.0.x264-CM 3.51GB


提示:如迅雷下载提示"任务出错"、"因版权无法下载",请尝试【迅雷5】
上传的附件:
最新回复 (0)
返回
本站所有资源均收集自互联网,没有提供影片资源存储, 也未参与录制、上传,若本站收录的资源无意侵犯了您的权益, 请联系邮箱:gogoimgs#gmail.com(#=@)