[2006] [其他] [剧情] [WEB-1080P] 海街的蜡烛 Candles.on.Bay.Street.2006.1080p.AMZN.WEBRip.DDP2.0.x264-ABM 5.61GB

uump4 7月前 184

帖子完整标题:海街的蜡烛 Candles.on.Bay.Street.2006.1080p.AMZN.WEBRip.DDP2.0.x264-ABM 5.61GB


悠悠MP4_MP4电影下载_海街的蜡烛 Candles.on.Bay.Street.2006.1080p.AMZN.WEBRip.DDP2.0.x264-ABM 5.61GB

◎译  名 海街的蜡烛
◎片  名 Candles on Bay Street
◎年  代 2006
◎产  地 USA
◎类  别 剧情
◎语  言 English
◎上映日期 2006-11-26
◎IMDb评分  6.5/10 from 893 users
◎IMDb链接  https://www.imdb.com/title/tt0869019
◎豆瓣评分 0/10 from 0 users
◎豆瓣链接 https://movie.douban.com/subject/1931297/
◎片  长 120分钟
◎导  演 约翰·厄曼 John Erman
◎编  剧 Jonathan Estrin / Michael Bortman
◎主  演 艾丽西亚·希尔维斯通 Alicia Silverstone
       艾恩·贝利 Eion Bailey
       波莉·伯根 Polly Bergen
       马修·奈特 Matthew Knight
       詹姆斯·瑞布霍恩 James Rebhorn
       安娜贝丝·吉什 Annabeth Gish
       杰恩·伊斯特伍德 Jayne Eastwood
       韦恩·罗布森 Wayne Robson
       Jonathan Potts
       Martha Irving
       Aislinn Paul
       Ted Atherton
       Katie Griffin
       Marlane O'Brien
       Brian Downey


◎标  签 美国 | 美国电影 | 爱情 | Silverstone | Alicia | rapid | hallmark | annabeth

◎简  介  

  娣娣(艾莉西亚·席维史东饰)高中毕业即离乡背井,生性自由的她现在带著十二岁大的小儿子回到暌违十三年的家乡,并与中学时期的热恋男友山姆(伊昂·贝利饰)重逢。山姆已与莉蒂雅(安娜贝·基许饰)结婚,二人生活幸福美满,不过迄今膝下无子。娣娣是否会对莉蒂雅造成威胁?娣娣儿子的父亲又谁是呢?

Video
ID                                       : 1
Format                                   : AVC
Format/Info                              : Advanced Video Codec
Format profile                           : [email protected]
Format settings                          : CABAC / 4 Ref Frames
Format settings, CABAC                   : Yes
Format settings, Reference frames        : 4 frames
Codec ID                                 : V_MPEG4/ISO/AVC
Duration                                 : 1 h 37 min
Bit rate mode                            : Variable
Bit rate                                 : 8 037 kb/s
Maximum bit rate                         : 15.0 Mb/s
Width                                    : 1 920 pixels
Height                                   : 1 080 pixels
Display aspect ratio                     : 16:9
Frame rate mode                          : Constant
Frame rate                               : 23.976 (24000/1001) FPS
Color space                              : YUV
Chroma subsampling                       : 4:2:0
Bit depth                                : 8 bits
Scan type                                : Progressive
Bits/(Pixel*Frame)                       : 0.162
Stream size                              : 5.46 GiB (97%)
Default                                  : Yes
Forced                                   : No
Color range                              : Limited
Color primaries                          : BT.709
Transfer characteristics                 : BT.709
Matrix coefficients                      : BT.709

Audio
ID                                       : 2
Format                                   : E-AC-3
Format/Info                              : Enhanced AC-3
Commercial name                          : Dolby Digital Plus
Codec ID                                 : A_EAC3
Duration                                 : 1 h 37 min
Bit rate mode                            : Constant
Bit rate                                 : 224 kb/s
Channel(s)                               : 2 channels
Channel layout                           : L R
Sampling rate                            : 48.0 kHz
Frame rate                               : 31.250 FPS (1536 SPF)
Compression mode                         : Lossy
Stream size                              : 156 MiB (3%)
Language                                 : English
Service kind                             : Complete Main
Default                                  : Yes
Forced                                   : No

Text #1
ID                                       : 3
Format                                   : UTF-8
Codec ID                                 : S_TEXT/UTF8
Codec ID/Info                            : UTF-8 Plain Text
Duration                                 : 1 h 33 min
Bit rate                                 : 61 b/s
Count of elements                        : 1677
Stream size                              : 42.0 KiB (0%)
Language                                 : English
Default                                  : No
Forced                                   : No

Text #2
ID                                       : 4
Format                                   : UTF-8
Codec ID                                 : S_TEXT/UTF8
Codec ID/Info                            : UTF-8 Plain Text
Duration                                 : 1 h 35 min
Bit rate                                 : 61 b/s
Count of elements                        : 1735
Stream size                              : 43.2 KiB (0%)
Title                                    : SDH
Language                                 : English
Default                                  : No
Forced                                   : No


悠悠MP4_MP4电影下载_海街的蜡烛 Candles.on.Bay.Street.2006.1080p.AMZN.WEBRip.DDP2.0.x264-ABM 5.61GB悠悠MP4_MP4电影下载_海街的蜡烛 Candles.on.Bay.Street.2006.1080p.AMZN.WEBRip.DDP2.0.x264-ABM 5.61GB悠悠MP4_MP4电影下载_海街的蜡烛 Candles.on.Bay.Street.2006.1080p.AMZN.WEBRip.DDP2.0.x264-ABM 5.61GB


提示:如迅雷下载提示"任务出错"、"因版权无法下载",请尝试【迅雷5】
上传的附件:
最新回复 (0)
返回
本站所有资源均收集自互联网,没有提供影片资源存储, 也未参与录制、上传,若本站收录的资源无意侵犯了您的权益, 请联系邮箱:gogoimgs#gmail.com(#=@)