[2009] [欧美] [科幻] [WEB-1080P] 怪蛇/许德拉 Hydra.2009.1080p.AMZN.WEBRip.DDP2.0.x264-NTG 8.75GB

uump4 7天前 261

帖子完整标题:怪蛇/许德拉 Hydra.2009.1080p.AMZN.WEBRip.DDP2.0.x264-NTG 8.75GB


悠悠MP4_MP4电影下载_怪蛇/许德拉 Hydra.2009.1080p.AMZN.WEBRip.DDP2.0.x264-NTG 8.75GB

◎译  名 怪蛇 / 许德拉
◎片  名 Hydra
◎年  代 2009
◎产  地 美国
◎类  别 科幻 / 恐怖
◎语  言 英语
◎上映日期 2009-02-22
◎IMDb评分  3.2/10 from 1225 users
◎IMDb链接  https://www.imdb.com/title/tt1034447
◎豆瓣评分 3.5/10 from 198 users
◎豆瓣链接 https://movie.douban.com/subject/3336984/
◎片  长 94分钟
◎导  演 Andrew Prendergast
◎编  剧 Peter Sullivan
◎主  演 Dwayne Adway
       Frank Alvarez


◎标  签 美国 | 恐怖 | 惊悚 | 冒险 | 烂片 | 美国电影 | 2009 | 科幻

◎简  介  

  杰克.斯通相信一个古老的传说:在神秘的魔鬼岛上埋藏着大量古代宝藏。但是他却不知道,岛上还有着可怕的秘密,保护这些远古宝藏的是一条古希腊传说中的多头怪蛇。在寻找宝藏的同时,杰克和他的伙伴发现他们也掉入岛上神秘生物的陷阱,他们将不得不为寻找生路而挣扎。

Video
ID                                       : 1
Format                                   : AVC
Format/Info                              : Advanced Video Codec
Format profile                           : [email protected]
Format settings                          : CABAC / 4 Ref Frames
Format settings, CABAC                   : Yes
Format settings, Reference frames        : 4 frames
Codec ID                                 : V_MPEG4/ISO/AVC
Duration                                 : 1 h 34 min
Bit rate                                 : 13.0 Mb/s
Width                                    : 1 920 pixels
Height                                   : 1 080 pixels
Display aspect ratio                     : 16:9
Frame rate mode                          : Constant
Frame rate                               : 23.976 (24000/1001) FPS
Color space                              : YUV
Chroma subsampling                       : 4:2:0
Bit depth                                : 8 bits
Scan type                                : Progressive
Bits/(Pixel*Frame)                       : 0.262
Stream size                              : 8.60 GiB (98%)
Default                                  : Yes
Forced                                   : No
Color range                              : Limited
Color primaries                          : BT.709
Transfer characteristics                 : BT.709
Matrix coefficients                      : BT.709

Audio
ID                                       : 2
Format                                   : E-AC-3
Format/Info                              : Enhanced AC-3
Commercial name                          : Dolby Digital Plus
Codec ID                                 : A_EAC3
Duration                                 : 1 h 34 min
Bit rate mode                            : Constant
Bit rate                                 : 224 kb/s
Channel(s)                               : 2 channels
Channel layout                           : L R
Sampling rate                            : 48.0 kHz
Frame rate                               : 31.250 FPS (1536 SPF)
Compression mode                         : Lossy
Stream size                              : 152 MiB (2%)
Language                                 : English
Service kind                             : Complete Main
Default                                  : Yes
Forced                                   : No

Text
ID                                       : 3
Format                                   : UTF-8
Codec ID                                 : S_TEXT/UTF8
Codec ID/Info                            : UTF-8 Plain Text
Duration                                 : 1 h 29 min
Bit rate                                 : 55 b/s
Count of elements                        : 1416
Stream size                              : 36.7 KiB (0%)
Title                                    : SDH
Language                                 : English
Default                                  : No
Forced                                   : No


悠悠MP4_MP4电影下载_怪蛇/许德拉 Hydra.2009.1080p.AMZN.WEBRip.DDP2.0.x264-NTG 8.75GB悠悠MP4_MP4电影下载_怪蛇/许德拉 Hydra.2009.1080p.AMZN.WEBRip.DDP2.0.x264-NTG 8.75GB悠悠MP4_MP4电影下载_怪蛇/许德拉 Hydra.2009.1080p.AMZN.WEBRip.DDP2.0.x264-NTG 8.75GB


提示:如迅雷下载提示"任务出错"、"因版权无法下载",请尝试【迅雷5】
上传的附件:
最新回复 (0)
返回
本站所有资源均收集自互联网,没有提供影片资源存储, 也未参与录制、上传,若本站收录的资源无意侵犯了您的权益, 请联系邮箱:gogoimgs#gmail.com(#=@)