[更早] [其他] [剧情] [WEB-1080P] 生死航程 Two.Came.Back.1997.1080p.AMZN.WEBRip.DDP2.0.x264-ABM 9.17GB

uump4 6月前 262

帖子完整标题:生死航程 Two.Came.Back.1997.1080p.AMZN.WEBRip.DDP2.0.x264-ABM 9.17GB


悠悠MP4_MP4电影下载_生死航程 Two.Came.Back.1997.1080p.AMZN.WEBRip.DDP2.0.x264-ABM 9.17GB

◎译  名 生死航程
◎片  名 Two Came Back
◎年  代 1997
◎产  地 USA / 美国
◎类  别 剧情 / 惊悚 / 冒险
◎语  言 english / 英语
◎上映日期 1997-09-28
◎IMDb评分  5.3/10 from 545 users
◎IMDb链接  https://www.imdb.com/title/tt0126707
◎豆瓣评分 0/10 from 0 users
◎豆瓣链接 https://movie.douban.com/subject/2054389/
◎片  长 90分钟
◎导  演 Dick Lowry
◎编  剧 Deborah Scaling-Kiley / Meg Noonan
◎主  演 Melissa Joan Hart ...  Susan Clarkson
       Jonathan Brandis ...  Jason
       David Gail ...  Matt


◎标  签 电视电影 | 美国 | 惊悚 | 小说改编 | 励志 | TV | 电影 | hallmark

◎简  介  

  暂无相关剧情介绍

Video
ID                                       : 1
Format                                   : AVC
Format/Info                              : Advanced Video Codec
Format profile                           : [email protected]
Format settings                          : CABAC / 4 Ref Frames
Format settings, CABAC                   : Yes
Format settings, Reference frames        : 4 frames
Codec ID                                 : V_MPEG4/ISO/AVC
Duration                                 : 1 h 28 min
Bit rate                                 : 14.3 Mb/s
Width                                    : 1 920 pixels
Height                                   : 1 080 pixels
Display aspect ratio                     : 16:9
Frame rate mode                          : Constant
Frame rate                               : 23.976 (24000/1001) FPS
Color space                              : YUV
Chroma subsampling                       : 4:2:0
Bit depth                                : 8 bits
Scan type                                : Progressive
Bits/(Pixel*Frame)                       : 0.288
Stream size                              : 8.85 GiB (97%)
Language                                 : English
Default                                  : Yes
Forced                                   : No
Color range                              : Limited
Color primaries                          : BT.709
Transfer characteristics                 : BT.709
Matrix coefficients                      : BT.709

Audio
ID                                       : 2
Format                                   : E-AC-3
Format/Info                              : Enhanced AC-3
Commercial name                          : Dolby Digital Plus
Codec ID                                 : A_EAC3
Duration                                 : 1 h 28 min
Bit rate mode                            : Constant
Bit rate                                 : 224 kb/s
Channel(s)                               : 2 channels
Channel layout                           : L R
Sampling rate                            : 48.0 kHz
Frame rate                               : 31.250 FPS (1536 SPF)
Compression mode                         : Lossy
Stream size                              : 142 MiB (2%)
Language                                 : English
Service kind                             : Complete Main
Default                                  : Yes
Forced                                   : No

Text #1
ID                                       : 3
Format                                   : UTF-8
Codec ID                                 : S_TEXT/UTF8
Codec ID/Info                            : UTF-8 Plain Text
Language                                 : English
Default                                  : No
Forced                                   : No

Text #2
ID                                       : 4
Format                                   : UTF-8
Codec ID                                 : S_TEXT/UTF8
Codec ID/Info                            : UTF-8 Plain Text
Title                                    : SDH
Language                                 : English
Default                                  : No
Forced                                   : No


悠悠MP4_MP4电影下载_生死航程 Two.Came.Back.1997.1080p.AMZN.WEBRip.DDP2.0.x264-ABM 9.17GB悠悠MP4_MP4电影下载_生死航程 Two.Came.Back.1997.1080p.AMZN.WEBRip.DDP2.0.x264-ABM 9.17GB悠悠MP4_MP4电影下载_生死航程 Two.Came.Back.1997.1080p.AMZN.WEBRip.DDP2.0.x264-ABM 9.17GB


提示:如迅雷下载提示"任务出错"、"因版权无法下载",请尝试【迅雷5】
上传的附件:
最新回复 (0)
返回
本站所有资源均收集自互联网,没有提供影片资源存储, 也未参与录制、上传,若本站收录的资源无意侵犯了您的权益, 请联系邮箱:gogoimgs#gmail.com(#=@)