[更早] [欧美] [WEB-1080P] 吸血蝙蝠 Vampire.Bats.2005.1080p.AMZN.WEBRip.DDP5.1.x264-ABM 9.02GB

uump4 4天前 86

帖子完整标题:吸血蝙蝠 Vampire.Bats.2005.1080p.AMZN.WEBRip.DDP5.1.x264-ABM 9.02GB


悠悠MP4_MP4电影下载_吸血蝙蝠 Vampire.Bats.2005.1080p.AMZN.WEBRip.DDP5.1.x264-ABM 9.02GB

◎译  名 吸血蝙蝠
◎片  名 Vampire Bats
◎年  代 2005
◎产  地 美国
◎语  言 英语
◎上映日期 2005-10-30
◎IMDb评分  4.2/10 from 1255 users
◎IMDb链接  https://www.imdb.com/title/tt0473105
◎豆瓣评分 5.4/10 from 171 users
◎豆瓣链接 https://movie.douban.com/subject/1950187/
◎导  演 Eric Bross
◎编  剧 Doug Prochilo
◎主  演 Lucy Lawless
       Liam Waite
       Dylan Neal
       Timothy Bottoms


◎标  签 惊悚 | 美国 | 吸血蝙蝠 | 科幻 | 美国电影 | 吸血鬼 | 电影 | vampire

◎简  介  

  當夜晚來臨,便是它們飽餐一頓的時候了!! 一個大學校園發生離奇命案,但似乎不是人類所為。動物行為學教授瑞登發現兇手是吸血蝙蝠,與一群學生展開調查。這群蝙蝠與一般的蝙蝠不同,可能是環境污染後的突變種。為了防止死亡人數不斷增加,全鎮都加入救援行動,但最可怕的卻不是蝙蝠,而是人類......
  露西.劳理斯的这部惊趚片中出演一位因调查一个被杀害的学生而陷入困境的科学家.在她的丈夫以及一群勇敢的学生的帮助下,她发现了一个惊人的秘密:杀人者其实是一个残忍冷酷的吸血蝙蝠.周围人的疑虑越来越大,那么她能否及时的制止一场灾难的降临呢

Video
ID                                       : 1
Format                                   : AVC
Format/Info                              : Advanced Video Codec
Format profile                           : [email protected]
Format settings                          : CABAC / 4 Ref Frames
Format settings, CABAC                   : Yes
Format settings, Reference frames        : 4 frames
Codec ID                                 : V_MPEG4/ISO/AVC
Duration                                 : 1 h 29 min
Bit rate                                 : 13.6 Mb/s
Width                                    : 1 920 pixels
Height                                   : 1 080 pixels
Display aspect ratio                     : 16:9
Frame rate mode                          : Constant
Frame rate                               : 23.976 (24000/1001) FPS
Color space                              : YUV
Chroma subsampling                       : 4:2:0
Bit depth                                : 8 bits
Scan type                                : Progressive
Bits/(Pixel*Frame)                       : 0.273
Stream size                              : 8.45 GiB (94%)
Language                                 : English
Default                                  : Yes
Forced                                   : No
Color range                              : Limited
Color primaries                          : BT.709
Transfer characteristics                 : BT.709
Matrix coefficients                      : BT.709

Audio
ID                                       : 2
Format                                   : E-AC-3
Format/Info                              : Enhanced AC-3
Commercial name                          : Dolby Digital Plus
Codec ID                                 : A_EAC3
Duration                                 : 1 h 29 min
Bit rate mode                            : Constant
Bit rate                                 : 640 kb/s
Channel(s)                               : 6 channels
Channel layout                           : L R C LFE Ls Rs
Sampling rate                            : 48.0 kHz
Frame rate                               : 31.250 FPS (1536 SPF)
Compression mode                         : Lossy
Stream size                              : 408 MiB (4%)
Language                                 : English
Service kind                             : Complete Main
Default                                  : Yes
Forced                                   : No

Text #1
ID                                       : 3
Format                                   : UTF-8
Codec ID                                 : S_TEXT/UTF8
Codec ID/Info                            : UTF-8 Plain Text
Language                                 : English
Default                                  : No
Forced                                   : No

Text #2
ID                                       : 4
Format                                   : UTF-8
Codec ID                                 : S_TEXT/UTF8
Codec ID/Info                            : UTF-8 Plain Text
Title                                    : SDH
Language                                 : English
Default                                  : No
Forced                                   : No


悠悠MP4_MP4电影下载_吸血蝙蝠 Vampire.Bats.2005.1080p.AMZN.WEBRip.DDP5.1.x264-ABM 9.02GB悠悠MP4_MP4电影下载_吸血蝙蝠 Vampire.Bats.2005.1080p.AMZN.WEBRip.DDP5.1.x264-ABM 9.02GB悠悠MP4_MP4电影下载_吸血蝙蝠 Vampire.Bats.2005.1080p.AMZN.WEBRip.DDP5.1.x264-ABM 9.02GB


提示:如迅雷下载提示"任务出错"、"因版权无法下载",请尝试【迅雷5】
上传的附件:
最新回复 (0)
返回
本站所有资源均收集自互联网,没有提供影片资源存储, 也未参与录制、上传,若本站收录的资源无意侵犯了您的权益, 请联系邮箱:gogoimgs#gmail.com(#=@)