[2016] [欧美] [剧情] [WEB-1080P] 英雄没有回家 Heroes.Dont.Come.Home.2016.1080p.WEBRip.x264-CONVOY 5.89GB

uump4 4天前 104

帖子完整标题:英雄没有回家 Heroes.Dont.Come.Home.2016.1080p.WEBRip.x264-CONVOY 5.89GB


悠悠MP4_MP4电影下载_英雄没有回家 Heroes.Dont.Come.Home.2016.1080p.WEBRip.x264-CONVOY 5.89GB

◎译  名 英雄没有回家
◎片  名 Heroes Don't Come Home
◎年  代 2016
◎产  地 美国
◎类  别 剧情 / 动作 / 战争
◎语  言 英语
◎上映日期 2016-06-08(美国)
◎IMDb评分  5.3/10 from 192 users
◎IMDb链接  https://www.imdb.com/title/tt5086198
◎豆瓣评分 0/10 from 0 users
◎豆瓣链接 https://movie.douban.com/subject/26883638/
◎片  长 107分钟
◎导  演 Jake Hulse
◎编  剧 Jake Hulse
◎主  演 Andrew Casanova
       Tyler McElroy
       Robert Schorr
       Katie Iacona
       Ann Gulian
       Maria Oppedisano
       John Anthony Wylliams
       Isaiah Brissette-Hatch
       Kateri DeMartino
       Jake Hulse


◎标  签 战争 | 剧情 | 电影 | 人性 | USMC | 911之后 | 2016 | 1080P

◎简  介  

  影片讲述一对好朋友在911事件后因为一个承诺,一起走上阿富汗战场的故事。

Video
ID                                       : 1
Format                                   : AVC
Format/Info                              : Advanced Video Codec
Format profile                           : [email protected]
Format settings                          : CABAC / 4 Ref Frames
Format settings, CABAC                   : Yes
Format settings, Reference frames        : 4 frames
Codec ID                                 : V_MPEG4/ISO/AVC
Duration                                 : 1 h 47 min
Bit rate                                 : 7 691 kb/s
Width                                    : 1 920 pixels
Height                                   : 1 012 pixels
Display aspect ratio                     : 1.897
Frame rate mode                          : Constant
Frame rate                               : 23.976 (24000/1001) FPS
Color space                              : YUV
Chroma subsampling                       : 4:2:0
Bit depth                                : 8 bits
Scan type                                : Progressive
Bits/(Pixel*Frame)                       : 0.165
Stream size                              : 5.80 GiB (98%)
Writing library                          : x264 core 152 r2851 ba24899
Encoding settings                        : cabac=1 / ref=4 / deblock=1:-3:-3 / analyse=0x3:0x113 / me=hex / subme=8 / psy=1 / psy_rd=1.00:0.00 / mixed_ref=1 / me_range=16 / chroma_me=1 / trellis=2 / 8x8dct=1 / cqm=0 / deadzone=21,11 / fast_pskip=1 / chroma_qp_offset=-2 / threads=30 / lookahead_threads=5 / sliced_threads=0 / nr=0 / decimate=1 / interlaced=0 / bluray_compat=0 / constrained_intra=0 / bframes=3 / b_pyramid=2 / b_adapt=1 / b_bias=0 / direct=3 / weightb=1 / open_gop=0 / weightp=2 / keyint=250 / keyint_min=23 / scenecut=40 / intra_refresh=0 / rc_lookahead=50 / rc=crf / mbtree=1 / crf=17.0 / qcomp=0.60 / qpmin=0 / qpmax=69 / qpstep=4 / ip_ratio=1.40 / aq=1:1.00
Default                                  : Yes
Forced                                   : No

Audio
ID                                       : 2
Format                                   : AAC LC
Format/Info                              : Advanced Audio Codec Low Complexity
Codec ID                                 : A_AAC-2
Duration                                 : 1 h 47 min
Bit rate                                 : 125 kb/s
Channel(s)                               : 2 channels
Channel layout                           : L R
Sampling rate                            : 48.0 kHz
Frame rate                               : 46.875 FPS (1024 SPF)
Compression mode                         : Lossy
Stream size                              : 96.8 MiB (2%)
Language                                 : English
Default                                  : Yes
Forced                                   : No

Text
ID                                       : 3
Format                                   : UTF-8
Codec ID                                 : S_TEXT/UTF8
Codec ID/Info                            : UTF-8 Plain Text
Duration                                 : 1 h 47 min
Bit rate                                 : 46 b/s
Count of elements                        : 1540
Stream size                              : 36.9 KiB (0%)
Language                                 : English
Default                                  : No
Forced                                   : No


悠悠MP4_MP4电影下载_英雄没有回家 Heroes.Dont.Come.Home.2016.1080p.WEBRip.x264-CONVOY 5.89GB悠悠MP4_MP4电影下载_英雄没有回家 Heroes.Dont.Come.Home.2016.1080p.WEBRip.x264-CONVOY 5.89GB悠悠MP4_MP4电影下载_英雄没有回家 Heroes.Dont.Come.Home.2016.1080p.WEBRip.x264-CONVOY 5.89GB


提示:如迅雷下载提示"任务出错"、"因版权无法下载",请尝试【迅雷5】
上传的附件:
最新回复 (0)
返回
本站所有资源均收集自互联网,没有提供影片资源存储, 也未参与录制、上传,若本站收录的资源无意侵犯了您的权益, 请联系邮箱:gogoimgs#gmail.com(#=@)