[更早] [欧美] [科幻] [BD-1080P] 校园怪物 Monster.on.the.Campus.1958.1080p.BluRay.x264-WiSDOM 5.47GB

uump4 1月前 52

帖子完整标题:校园怪物 Monster.on.the.Campus.1958.1080p.BluRay.x264-WiSDOM 5.47GB


悠悠MP4_MP4电影下载_校园怪物 Monster.on.the.Campus.1958.1080p.BluRay.x264-WiSDOM 5.47GB

◎译  名 校园怪物
◎片  名 Monster on the Campus
◎年  代 1958
◎产  地 美国
◎类  别 科幻 / 恐怖
◎语  言 英语
◎上映日期 1958-12-17
◎IMDb评分  5.8/10 from 1425 users
◎IMDb链接  https://www.imdb.com/title/tt0051948
◎豆瓣评分 0/10 from 0 users
◎豆瓣链接 https://movie.douban.com/subject/3066755/
◎片  长 77 分钟
◎导  演 Jack Arnold
◎编  剧 大卫·邓肯 David Duncan
◎主  演 阿瑟·弗兰兹 Arthur Franz
       乔安娜·摩尔 Joanna Moore
       贾德森普拉特 Judson Pratt
       Nancy Walters
       特洛伊·多纳胡 Troy Donahue


◎标  签 美国 | 科幻 | 环球 | 1958 | 美国电影 | 杰克阿诺德 | 恐怖 | 【687M】

◎简  介  

  暂无相关剧情介绍

Video
ID                                       : 1
Format                                   : AVC
Format/Info                              : Advanced Video Codec
Format profile                           : [email protected]
Format settings                          : CABAC / 4 Ref Frames
Format settings, CABAC                   : Yes
Format settings, Reference frames        : 4 frames
Codec ID                                 : V_MPEG4/ISO/AVC
Duration                                 : 1 h 16 min
Bit rate                                 : 9 851 kb/s
Width                                    : 1 920 pixels
Height                                   : 1 040 pixels
Display aspect ratio                     : 1.85:1
Frame rate mode                          : Constant
Frame rate                               : 23.976 (24000/1001) FPS
Color space                              : YUV
Chroma subsampling                       : 4:2:0
Bit depth                                : 8 bits
Scan type                                : Progressive
Bits/(Pixel*Frame)                       : 0.206
Stream size                              : 5.27 GiB (96%)
Writing library                          : x264 core 159 r2991 1771b55
Encoding settings                        : cabac=1 / ref=4 / deblock=1:0:0 / analyse=0x3:0x113 / me=umh / subme=8 / psy=1 / psy_rd=1.00:0.00 / mixed_ref=1 / me_range=16 / chroma_me=1 / trellis=2 / 8x8dct=1 / cqm=0 / deadzone=21,11 / fast_pskip=0 / chroma_qp_offset=-2 / threads=18 / lookahead_threads=3 / sliced_threads=0 / nr=0 / decimate=1 / interlaced=0 / bluray_compat=0 / constrained_intra=0 / bframes=3 / b_pyramid=2 / b_adapt=1 / b_bias=0 / direct=1 / weightb=1 / open_gop=0 / weightp=2 / keyint=250 / keyint_min=23 / scenecut=40 / intra_refresh=0 / rc_lookahead=50 / rc=2pass / mbtree=1 / bitrate=9851 / ratetol=1.0 / qcomp=0.60 / qpmin=0 / qpmax=69 / qpstep=4 / cplxblur=20.0 / qblur=0.5 / ip_ratio=1.40 / aq=1:1.00
Default                                  : Yes
Forced                                   : No

Audio
ID                                       : 2
Format                                   : FLAC
Format/Info                              : Free Lossless Audio Codec
Codec ID                                 : A_FLAC
Duration                                 : 1 h 16 min
Bit rate mode                            : Variable
Bit rate                                 : 366 kb/s
Channel(s)                               : 2 channels
Channel layout                           : L R
Sampling rate                            : 48.0 kHz
Frame rate                               : 11.719 FPS (4096 SPF)
Bit depth                                : 16 bits
Compression mode                         : Lossless
Stream size                              : 200 MiB (4%)
Writing library                          : libFLAC 1.2.1 (UTC 2007-09-17)
Language                                 : English
Default                                  : No
Forced                                   : No

Text
ID                                       : 3
Format                                   : UTF-8
Codec ID                                 : S_TEXT/UTF8
Codec ID/Info                            : UTF-8 Plain Text
Duration                                 : 1 h 14 min
Bit rate                                 : 65 b/s
Count of elements                        : 871
Stream size                              : 35.7 KiB (0%)
Title                                    : English Fullsubs
Language                                 : English
Default                                  : No
Forced                                   : No

Menu
00:00:00.000                             : en:00:00:00.000
00:01:11.613                             : en:00:01:11.613
00:06:05.240                             : en:00:06:05.240
00:11:39.407                             : en:00:11:39.407
00:15:12.745                             : en:00:15:12.745
00:18:21.851                             : en:00:18:21.851
00:22:12.957                             : en:00:22:12.957
00:29:17.881                             : en:00:29:17.881
00:33:54.157                             : en:00:33:54.157
00:39:20.525                             : en:00:39:20.525
00:43:39.575                             : en:00:43:39.575
00:50:05.878                             : en:00:50:05.878
00:56:05.612                             : en:00:56:05.612
01:03:11.579                             : en:01:03:11.579
01:09:47.767                             : en:01:09:47.767
01:12:46.571                             : en:01:12:46.571


悠悠MP4_MP4电影下载_校园怪物 Monster.on.the.Campus.1958.1080p.BluRay.x264-WiSDOM 5.47GB


提示:如迅雷下载提示"任务出错"、"因版权无法下载",请尝试【迅雷5】
上传的附件:
最新回复 (0)
返回
本站所有资源均收集自互联网,没有提供影片资源存储, 也未参与录制、上传,若本站收录的资源无意侵犯了您的权益, 请联系邮箱:gogoimgs#gmail.com(#=@)