[2019] [欧美] [其他] [WEB-1080P] 无声的月光奏鸣曲/月光奏鳴曲:無聲的三樂章 Moonlight.Sonata.Deafness.in.Three.Movements.2019.1080p.AM

uump4 8月前 345

帖子完整标题:无声的月光奏鸣曲/月光奏鳴曲:無聲的三樂章 Moonlight.Sonata.Deafness.in.Three.Movements.2019.1080p.AMZN.WEBRip.DDP5.1.x264-NTG 6.31GB


悠悠MP4_MP4电影下载_无声的月光奏鸣曲/月光奏鳴曲:無聲的三樂章 Moonlight.Sonata.Deafness.in.Three.Movements.2019.1080p.AM

◎译  名 无声的月光奏鸣曲 / 月光奏鳴曲:無聲的三樂章
◎片  名 Moonlight Sonata: Deafness in Three Movements
◎年  代 2019
◎产  地 美国
◎类  别 纪录片
◎语  言 英语
◎上映日期 2019-01-27(圣丹斯电影节)
◎IMDb评分  7.2/10 from 26 users
◎IMDb链接  https://www.imdb.com/title/tt9135318
◎豆瓣评分 0/10 from 0 users
◎豆瓣链接 https://movie.douban.com/subject/30390710/
◎片  长 90分钟
◎导  演 Irene Taylor Brodsky

◎标  签 Documentary | 美国电影 | 纪录片 | 电影 | PA-SundanceA纪录片竞赛/美国纪录片 | English | 4stars

◎简  介  

  Moonlight Sonata is a deeply personal memoir about a deaf boy growing up, his deaf grandfather growing old, and Beethoven the year he was blindsided by deafness and wrote his iconic sonata. Their lives weave a story about what we discover when we push beyond loss.

◎获奖情况  

  第35届圣丹斯电影节(2019)
  评审团大奖 纪录片(提名) Irene Taylor Brodsky

Video
ID                                       : 1
Format                                   : AVC
Format/Info                              : Advanced Video Codec
Format profile                           : [email protected]
Format settings                          : CABAC / 4 Ref Frames
Format settings, CABAC                   : Yes
Format settings, Reference frames        : 4 frames
Codec ID                                 : V_MPEG4/ISO/AVC
Duration                                 : 1 h 29 min
Bit rate mode                            : Constant
Bit rate                                 : 9 429 kb/s
Nominal bit rate                         : 10 000 kb/s
Width                                    : 1 920 pixels
Height                                   : 1 080 pixels
Display aspect ratio                     : 16:9
Frame rate mode                          : Constant
Frame rate                               : 23.976 (24000/1001) FPS
Color space                              : YUV
Chroma subsampling                       : 4:2:0
Bit depth                                : 8 bits
Scan type                                : Progressive
Bits/(Pixel*Frame)                       : 0.190
Stream size                              : 5.91 GiB (94%)
Default                                  : Yes
Forced                                   : No
Color range                              : Limited
Color primaries                          : BT.709
Transfer characteristics                 : BT.709
Matrix coefficients                      : BT.709

Audio
ID                                       : 2
Format                                   : E-AC-3
Format/Info                              : Enhanced AC-3
Commercial name                          : Dolby Digital Plus
Codec ID                                 : A_EAC3
Duration                                 : 1 h 29 min
Bit rate mode                            : Constant
Bit rate                                 : 640 kb/s
Channel(s)                               : 6 channels
Channel layout                           : L R C LFE Ls Rs
Sampling rate                            : 48.0 kHz
Frame rate                               : 31.250 FPS (1536 SPF)
Compression mode                         : Lossy
Stream size                              : 411 MiB (6%)
Language                                 : English
Service kind                             : Complete Main
Default                                  : Yes
Forced                                   : No

Text #1
ID                                       : 3
Format                                   : UTF-8
Codec ID                                 : S_TEXT/UTF8
Codec ID/Info                            : UTF-8 Plain Text
Duration                                 : 1 h 28 min
Bit rate                                 : 39 b/s
Count of elements                        : 665
Stream size                              : 25.6 KiB (0%)
Language                                 : English
Default                                  : No
Forced                                   : No

Text #2
ID                                       : 4
Format                                   : UTF-8
Codec ID                                 : S_TEXT/UTF8
Codec ID/Info                            : UTF-8 Plain Text
Duration                                 : 1 h 29 min
Bit rate                                 : 51 b/s
Count of elements                        : 886
Stream size                              : 33.8 KiB (0%)
Title                                    : SDH
Language                                 : English
Default                                  : No
Forced                                   : No


悠悠MP4_MP4电影下载_无声的月光奏鸣曲/月光奏鳴曲:無聲的三樂章 Moonlight.Sonata.Deafness.in.Three.Movements.2019.1080p.AM悠悠MP4_MP4电影下载_无声的月光奏鸣曲/月光奏鳴曲:無聲的三樂章 Moonlight.Sonata.Deafness.in.Three.Movements.2019.1080p.AM悠悠MP4_MP4电影下载_无声的月光奏鸣曲/月光奏鳴曲:無聲的三樂章 Moonlight.Sonata.Deafness.in.Three.Movements.2019.1080p.AM


提示:如迅雷下载提示"任务出错"、"因版权无法下载",请尝试【迅雷5】
上传的附件:
最新回复 (0)
返回
本站所有资源均收集自互联网,没有提供影片资源存储, 也未参与录制、上传,若本站收录的资源无意侵犯了您的权益, 请联系邮箱:gogoimgs#gmail.com(#=@)