[2019] [欧美] [爱情] [WEB-1080P] 同一时间下个圣诞节 Same.Time.Next.Christmas.2019.1080p.HULU.WEBRip.DDP5.1.x264-KamiKaze 3

uump4 1月前 129

帖子完整标题:同一时间下个圣诞节 Same.Time.Next.Christmas.2019.1080p.HULU.WEBRip.DDP5.1.x264-KamiKaze 3.46GB


悠悠MP4_MP4电影下载_同一时间下个圣诞节 Same.Time.Next.Christmas.2019.1080p.HULU.WEBRip.DDP5.1.x264-KamiKaze 3

◎译  名 同一时间,下个圣诞节
◎片  名 Same Time, Next Christmas
◎年  代 2019
◎产  地 美国
◎类  别 爱情
◎语  言 英语
◎上映日期 2019-12-05(美国)
◎IMDb评分  6.7/10 from 110 users
◎IMDb链接  https://www.imdb.com/title/tt10650924
◎豆瓣评分 0/10 from 0 users
◎豆瓣链接 https://movie.douban.com/subject/34876145/
◎主  演 丽亚·米雪儿 Lea Michele
       查尔斯·迈克尔·戴维斯 Charles Michael Davis
       布莱恩·格林伯格 Bryan Greenberg
       乔治·纽伯恩 George Newbern
       妮娅·瓦达拉斯 Nia Vardalos
       菲尔·莫里斯 Phil Morris
       Lehi Makisi Falepapalangi
       坎迪斯?史密斯 Candace Smith
       小特雷尔·兰森 Terrell Ransom Jr.
       Sara Rowe


◎简  介  

  一位年轻女子在一年一度的夏威夷圣诞之旅中遇到了她儿时的心上人,但环境使他们分开了。

Video
ID                                       : 1
Format                                   : AVC
Format/Info                              : Advanced Video Codec
Format profile                           : [email protected]
Format settings                          : CABAC / 4 Ref Frames
Format settings, CABAC                   : Yes
Format settings, Reference frames        : 4 frames
Codec ID                                 : V_MPEG4/ISO/AVC
Duration                                 : 1 h 21 min
Bit rate                                 : 5 818 kb/s
Width                                    : 1 920 pixels
Height                                   : 1 080 pixels
Display aspect ratio                     : 16:9
Frame rate mode                          : Constant
Frame rate                               : 23.976 (24000/1001) FPS
Color space                              : YUV
Chroma subsampling                       : 4:2:0
Bit depth                                : 8 bits
Scan type                                : Progressive
Bits/(Pixel*Frame)                       : 0.117
Stream size                              : 3.32 GiB (96%)
Default                                  : Yes
Forced                                   : No

Audio
ID                                       : 2
Format                                   : E-AC-3
Format/Info                              : Enhanced AC-3
Commercial name                          : Dolby Digital Plus
Codec ID                                 : A_EAC3
Duration                                 : 1 h 21 min
Bit rate mode                            : Constant
Bit rate                                 : 256 kb/s
Channel(s)                               : 6 channels
Channel layout                           : L R C LFE Ls Rs
Sampling rate                            : 48.0 kHz
Frame rate                               : 31.250 FPS (1536 SPF)
Compression mode                         : Lossy
Stream size                              : 149 MiB (4%)
Language                                 : English
Service kind                             : Complete Main
Default                                  : Yes
Forced                                   : No

Text
ID                                       : 3
Format                                   : UTF-8
Codec ID                                 : S_TEXT/UTF8
Codec ID/Info                            : UTF-8 Plain Text
Duration                                 : 1 h 21 min
Bit rate                                 : 83 b/s
Count of elements                        : 1849
Stream size                              : 49.7 KiB (0%)
Language                                 : English
Default                                  : No
Forced                                   : No


悠悠MP4_MP4电影下载_同一时间下个圣诞节 Same.Time.Next.Christmas.2019.1080p.HULU.WEBRip.DDP5.1.x264-KamiKaze 3悠悠MP4_MP4电影下载_同一时间下个圣诞节 Same.Time.Next.Christmas.2019.1080p.HULU.WEBRip.DDP5.1.x264-KamiKaze 3悠悠MP4_MP4电影下载_同一时间下个圣诞节 Same.Time.Next.Christmas.2019.1080p.HULU.WEBRip.DDP5.1.x264-KamiKaze 3


提示:如迅雷下载提示"任务出错"、"因版权无法下载",请尝试【迅雷5】
上传的附件:
最新回复 (0)
返回
本站所有资源均收集自互联网,没有提供影片资源存储, 也未参与录制、上传,若本站收录的资源无意侵犯了您的权益, 请联系邮箱:gogoimgs#gmail.com(#=@)