[更早] [欧美] [喜剧] [WEB-1080P] 嫁错丈夫娶错妻 The.Last.Married.Couple.in.America.1980.1080p.AMZN.WEBRip.DD2.0.x264-mon

uump4 3天前 84

帖子完整标题:嫁错丈夫娶错妻 The.Last.Married.Couple.in.America.1980.1080p.AMZN.WEBRip.DD2.0.x264-monkee 10.67GB


悠悠MP4_MP4电影下载_嫁错丈夫娶错妻 The.Last.Married.Couple.in.America.1980.1080p.AMZN.WEBRip.DD2.0.x264-mon

◎译  名 嫁错丈夫娶错妻
◎片  名 The Last Married Couple in America
◎年  代 1980
◎产  地 美国
◎类  别 喜剧
◎语  言 英语
◎上映日期 1980-02-08
◎IMDb评分  5.3/10 from 533 users
◎IMDb链接  https://www.imdb.com/title/tt0081032
◎豆瓣评分 0/10 from 0 users
◎豆瓣链接 https://movie.douban.com/subject/2133104/
◎片  长 103 分钟
◎导  演 Gilbert Cates
◎编  剧 John Herman Shaner
◎主  演 乔治·席格 George Segal
       娜塔利·伍德 Natalie Wood
       理查德·本杰明 Richard Benjamin


◎标  签 NatalieWood | 美国 | 外国电影 | 喜剧 | Richard_Benjamin | RichardBenjamin | Natalie_Wood | George_Segal

◎简  介  

  描70年代述"性解放"年代对美国中产阶级已婚男女的冲击。

Video
ID                                       : 1
Format                                   : AVC
Format/Info                              : Advanced Video Codec
Format profile                           : [email protected]
Format settings                          : CABAC / 4 Ref Frames
Format settings, CABAC                   : Yes
Format settings, Reference frames        : 4 frames
Codec ID                                 : V_MPEG4/ISO/AVC
Duration                                 : 1 h 41 min
Bit rate mode                            : Variable
Bit rate                                 : 14.8 Mb/s
Maximum bit rate                         : 15.0 Mb/s
Width                                    : 1 920 pixels
Height                                   : 1 040 pixels
Display aspect ratio                     : 1.85:1
Frame rate mode                          : Constant
Frame rate                               : 23.976 (24000/1001) FPS
Color space                              : YUV
Chroma subsampling                       : 4:2:0
Bit depth                                : 8 bits
Scan type                                : Progressive
Bits/(Pixel*Frame)                       : 0.308
Stream size                              : 10.5 GiB (98%)
Default                                  : Yes
Forced                                   : No
Color range                              : Limited
Color primaries                          : BT.709
Transfer characteristics                 : BT.709
Matrix coefficients                      : BT.709

Audio
ID                                       : 2
Format                                   : E-AC-3
Format/Info                              : Enhanced AC-3
Commercial name                          : Dolby Digital Plus
Codec ID                                 : A_EAC3
Duration                                 : 1 h 41 min
Bit rate mode                            : Constant
Bit rate                                 : 224 kb/s
Channel(s)                               : 2 channels
Channel layout                           : L R
Sampling rate                            : 48.0 kHz
Frame rate                               : 31.250 FPS (1536 SPF)
Compression mode                         : Lossy
Stream size                              : 163 MiB (1%)
Language                                 : English
Service kind                             : Complete Main
Default                                  : Yes
Forced                                   : No

Text
ID                                       : 3
Format                                   : UTF-8
Codec ID                                 : S_TEXT/UTF8
Codec ID/Info                            : UTF-8 Plain Text
Duration                                 : 1 h 39 min
Bit rate                                 : 78 b/s
Count of elements                        : 1831
Stream size                              : 56.9 KiB (0%)
Language                                 : English
Default                                  : No
Forced                                   : No


悠悠MP4_MP4电影下载_嫁错丈夫娶错妻 The.Last.Married.Couple.in.America.1980.1080p.AMZN.WEBRip.DD2.0.x264-mon悠悠MP4_MP4电影下载_嫁错丈夫娶错妻 The.Last.Married.Couple.in.America.1980.1080p.AMZN.WEBRip.DD2.0.x264-mon悠悠MP4_MP4电影下载_嫁错丈夫娶错妻 The.Last.Married.Couple.in.America.1980.1080p.AMZN.WEBRip.DD2.0.x264-mon


提示:如迅雷下载提示"任务出错"、"因版权无法下载",请尝试【迅雷5】
上传的附件:
最新回复 (0)
返回
本站所有资源均收集自互联网,没有提供影片资源存储, 也未参与录制、上传,若本站收录的资源无意侵犯了您的权益, 请联系邮箱:gogoimgs#gmail.com(#=@)