[更早] [欧美] [喜剧] [WEB-1080P] 小鬼出招 Getting.Even.with.Dad.1994.1080p.AMZN.WEBRip.DD2.0.x264-monkee 10.17GB

uump4 3天前 40

帖子完整标题:小鬼出招 Getting.Even.with.Dad.1994.1080p.AMZN.WEBRip.DD2.0.x264-monkee 10.17GB


悠悠MP4_MP4电影下载_小鬼出招 Getting.Even.with.Dad.1994.1080p.AMZN.WEBRip.DD2.0.x264-monkee 10.17GB

◎译  名 小鬼出招
◎片  名 Getting Even with Dad
◎年  代 1994
◎产  地 美国
◎类  别 喜剧 / 家庭 / 犯罪
◎语  言 英语
◎上映日期 1994-06-17
◎IMDb评分  4.8/10 from 7117 users
◎IMDb链接  https://www.imdb.com/title/tt0109891
◎豆瓣评分 7.0/10 from 66 users
◎豆瓣链接 https://movie.douban.com/subject/1301919/
◎片  长 109分钟
◎导  演 霍华德·达奇 Howard Deutch
◎编  剧 Jim Jennewein / Tom S. Parker
◎主  演 麦考利·卡尔金 Macaulay Culkin
       特德·丹森 Ted Danson
       格伦妮·海德利 Glenne Headly


◎标  签 喜剧 | 小鬼 | 美国 | 美国电影 | 儿童 | 聪明 | Macaulay-Culkin | 电影

◎简  介  

  大雷和先前狱友三人计划窃取价值150万美金的古代金币。原本天衣无缝的妙计却临阵生变,因为大雷久未谋面的十一岁儿子提米,突然被其姑姑送回家里,使得这三个老混混顿时手足无措、不知如何是好。隔日,他们仍决定按计划进行,并顺利劫得金币带回家中藏匿。但他们诡异的举止却被精明的提米识破,私下将金币藏往别处,以此作为条件,要求其父大雷需陪伴他游玩一周,让他享受从未有过的父子亲情。大雷等三人无奈地勉强答应,并因担心被黑吃黑而互相紧密监视著...

Video
ID                                       : 1
Format                                   : AVC
Format/Info                              : Advanced Video Codec
Format profile                           : [email protected]
Format settings                          : CABAC / 4 Ref Frames
Format settings, CABAC                   : Yes
Format settings, Reference frames        : 4 frames
Codec ID                                 : V_MPEG4/ISO/AVC
Duration                                 : 1 h 48 min
Bit rate mode                            : Variable
Bit rate                                 : 13.2 Mb/s
Maximum bit rate                         : 15.0 Mb/s
Width                                    : 1 920 pixels
Height                                   : 1 040 pixels
Display aspect ratio                     : 1.85:1
Frame rate mode                          : Constant
Frame rate                               : 23.976 (24000/1001) FPS
Color space                              : YUV
Chroma subsampling                       : 4:2:0
Bit depth                                : 8 bits
Scan type                                : Progressive
Bits/(Pixel*Frame)                       : 0.275
Stream size                              : 10.00 GiB (98%)
Default                                  : Yes
Forced                                   : No
Color range                              : Limited
Color primaries                          : BT.709
Transfer characteristics                 : BT.709
Matrix coefficients                      : BT.709

Audio
ID                                       : 2
Format                                   : E-AC-3
Format/Info                              : Enhanced AC-3
Commercial name                          : Dolby Digital Plus
Codec ID                                 : A_EAC3
Duration                                 : 1 h 48 min
Bit rate mode                            : Constant
Bit rate                                 : 224 kb/s
Channel(s)                               : 2 channels
Channel layout                           : L R
Sampling rate                            : 48.0 kHz
Frame rate                               : 31.250 FPS (1536 SPF)
Compression mode                         : Lossy
Stream size                              : 174 MiB (2%)
Language                                 : English
Service kind                             : Complete Main
Default                                  : Yes
Forced                                   : No

Text
ID                                       : 3
Format                                   : UTF-8
Codec ID                                 : S_TEXT/UTF8
Codec ID/Info                            : UTF-8 Plain Text
Duration                                 : 1 h 45 min
Bit rate                                 : 82 b/s
Count of elements                        : 1960
Stream size                              : 63.9 KiB (0%)
Language                                 : English
Default                                  : No
Forced                                   : No


悠悠MP4_MP4电影下载_小鬼出招 Getting.Even.with.Dad.1994.1080p.AMZN.WEBRip.DD2.0.x264-monkee 10.17GB悠悠MP4_MP4电影下载_小鬼出招 Getting.Even.with.Dad.1994.1080p.AMZN.WEBRip.DD2.0.x264-monkee 10.17GB悠悠MP4_MP4电影下载_小鬼出招 Getting.Even.with.Dad.1994.1080p.AMZN.WEBRip.DD2.0.x264-monkee 10.17GB


提示:如迅雷下载提示"任务出错"、"因版权无法下载",请尝试【迅雷5】
上传的附件:
最新回复 (0)
返回
本站所有资源均收集自互联网,没有提供影片资源存储, 也未参与录制、上传,若本站收录的资源无意侵犯了您的权益, 请联系邮箱:gogoimgs#gmail.com(#=@)