[2015] [其他] [剧情] [WEB-1080P] 守望 The.Companion.2015.SPANISH.ENSUBBED.1080p.AMZN.WEBRip.DD2.0.x264-QOQ 4.96GB

uump4 3天前 50

帖子完整标题:守望 The.Companion.2015.SPANISH.ENSUBBED.1080p.AMZN.WEBRip.DD2.0.x264-QOQ 4.96GB


悠悠MP4_MP4电影下载_守望 The.Companion.2015.SPANISH.ENSUBBED.1080p.AMZN.WEBRip.DD2.0.x264-QOQ 4.96GB

◎译  名 守望 / The Companion / 守望者
◎片  名 El acompa?ante
◎年  代 2015
◎产  地 古巴 / 西班牙
◎类  别 剧情
◎语  言 西班牙语
◎上映日期 2016-04-30(美国)
◎IMDb评分  7.6/10 from 232 users
◎IMDb链接  https://www.imdb.com/title/tt5095010
◎豆瓣评分 6.4/10 from 96 users
◎豆瓣链接 https://movie.douban.com/subject/26773818/
◎片  长 104分钟
◎导  演 Pavel Giroud
◎编  剧 亚历桑德罗·布鲁格斯 Alejandro Brugués / Pierre Edelman
◎主  演 Camila Arteche
       Armando Miguel Gómez
       Broselianda Hernández
       Yotuel Romero
       Jazz Vilá


◎标  签 古巴 | 2015 | 艾滋病 | 剧情 | 古巴电影 | 爱情 | 艾滋 | 同性

◎简  介  

  本片讲述了特殊年代一个失意拳击手和一个艾滋病人互相拯救的故事。豆瓣词条里的同性标签不知道是谁乱打的,这片并没有任何同性情节,但是演技自然流畅结局也是很虐心

Video
ID                                       : 1
Format                                   : AVC
Format/Info                              : Advanced Video Codec
Format profile                           : [email protected]
Format settings                          : CABAC / 4 Ref Frames
Format settings, CABAC                   : Yes
Format settings, Reference frames        : 4 frames
Codec ID                                 : V_MPEG4/ISO/AVC
Duration                                 : 1 h 44 min
Bit rate mode                            : Variable
Bit rate                                 : 6 590 kb/s
Maximum bit rate                         : 15.0 Mb/s
Width                                    : 1 920 pixels
Height                                   : 1 080 pixels
Display aspect ratio                     : 16:9
Frame rate mode                          : Constant
Frame rate                               : 23.976 (24000/1001) FPS
Color space                              : YUV
Chroma subsampling                       : 4:2:0
Bit depth                                : 8 bits
Scan type                                : Progressive
Bits/(Pixel*Frame)                       : 0.133
Stream size                              : 4.79 GiB (97%)
Default                                  : Yes
Forced                                   : No
Color range                              : Limited
Color primaries                          : BT.709
Transfer characteristics                 : BT.709
Matrix coefficients                      : BT.709

Audio
ID                                       : 2
Format                                   : E-AC-3
Format/Info                              : Enhanced AC-3
Commercial name                          : Dolby Digital Plus
Codec ID                                 : A_EAC3
Duration                                 : 1 h 44 min
Bit rate mode                            : Constant
Bit rate                                 : 224 kb/s
Channel(s)                               : 2 channels
Channel layout                           : L R
Sampling rate                            : 48.0 kHz
Frame rate                               : 31.250 FPS (1536 SPF)
Compression mode                         : Lossy
Stream size                              : 167 MiB (3%)
Language                                 : Spanish
Service kind                             : Complete Main
Default                                  : Yes
Forced                                   : No


悠悠MP4_MP4电影下载_守望 The.Companion.2015.SPANISH.ENSUBBED.1080p.AMZN.WEBRip.DD2.0.x264-QOQ 4.96GB悠悠MP4_MP4电影下载_守望 The.Companion.2015.SPANISH.ENSUBBED.1080p.AMZN.WEBRip.DD2.0.x264-QOQ 4.96GB悠悠MP4_MP4电影下载_守望 The.Companion.2015.SPANISH.ENSUBBED.1080p.AMZN.WEBRip.DD2.0.x264-QOQ 4.96GB


提示:如迅雷下载提示"任务出错"、"因版权无法下载",请尝试【迅雷5】
上传的附件:
最新回复 (0)
返回
本站所有资源均收集自互联网,没有提供影片资源存储, 也未参与录制、上传,若本站收录的资源无意侵犯了您的权益, 请联系邮箱:gogoimgs#gmail.com(#=@)