[2017] [欧美] [其他] [BD-1080P] 雪宝的冰雪大冒险/冰雪奇缘番外短片 Olafs.Frozen.Adventure.2017.1080p.BluRay.x264-HANDJOB 1.44GB

uump4 10天前 120

帖子完整标题:雪宝的冰雪大冒险/冰雪奇缘番外短片 Olafs.Frozen.Adventure.2017.1080p.BluRay.x264-HANDJOB 1.44GB


悠悠MP4_MP4电影下载_雪宝的冰雪大冒险/冰雪奇缘番外短片 Olafs.Frozen.Adventure.2017.1080p.BluRay.x264-HANDJOB 1.44GB

◎译  名 雪宝的冰雪大冒险 / 冰雪奇缘番外短片 / 雪宝的佳节冒险
◎片  名 Olaf's Frozen Adventure
◎年  代 2017
◎产  地 美国
◎类  别 动画 / 短片 / 歌舞 / 奇幻 / 冒险
◎语  言 英语
◎上映日期 2017-11-22(美国)
◎IMDb评分  5.4/10 from 9763 users
◎IMDb链接  https://www.imdb.com/title/tt5452780
◎豆瓣评分 7.6/10 from 3236 users
◎豆瓣链接 https://movie.douban.com/subject/27006488/
◎片  长 21分钟
◎导  演 凯文·迪特斯 Kevin Deters / 施特维·韦默斯 Stevie Wermers
◎编  剧 克里斯·巴克 Chris Buck / 珍妮弗·李 Jennifer Lee / 雅克·舍费尔 Jac Schaeffer
◎主  演 克里斯汀·贝尔 Kristen Bell
       伊迪娜·门泽尔 Idina Menzel
       乔什·加德 Josh Gad
       乔纳森·格罗夫 Jonathan Groff
       玛格·卡拉·苏西 Margaux Calla Susi


◎标  签 动画 | 短片 | 美国 | 迪士尼 | 冰雪奇缘 | 动画短片 | 2017 | 奇幻

◎简  介  

  在阿伦黛尔城堡大门打开后的第一个圣诞节前,安娜和艾莎为所有人准备了一个惊喜派对。但王国里的人们都不来参加,而是要根据自己家的传统与家人一起过节。安娜和艾莎多年没有在一起过圣诞节,因此没有家庭传统!为此,雪宝踏上了一场为姐妹俩寻找最棒传统的冒险……
  《雪宝的冰雪大冒险》是迪士尼动画电影《冰雪奇缘》(Frozen)的第二部衍生短片,在2017年上映的皮克斯电影《寻梦环游记》(Coco)前贴片放映。

◎获奖情况  

  第45届动画安妮奖(2018)
  最佳配乐(提名) 克里斯托弗·贝克
  最佳动画效果(提名)
  最佳特殊动画(提名)

Video
ID                                       : 1
Format                                   : AVC
Format/Info                              : Advanced Video Codec
Format profile                           : [email protected]
Format settings                          : CABAC / 4 Ref Frames
Format settings, CABAC                   : Yes
Format settings, Reference frames        : 4 frames
Codec ID                                 : V_MPEG4/ISO/AVC
Duration                                 : 22 min 4 s
Bit rate                                 : 8 950 kb/s
Width                                    : 1 920 pixels
Height                                   : 1 080 pixels
Display aspect ratio                     : 16:9
Frame rate mode                          : Constant
Frame rate                               : 23.976 (24000/1001) FPS
Color space                              : YUV
Chroma subsampling                       : 4:2:0
Bit depth                                : 8 bits
Scan type                                : Progressive
Bits/(Pixel*Frame)                       : 0.180
Stream size                              : 1.38 GiB (96%)
Writing library                          : x264 core 155 r2901 7d0ff22
Encoding settings                        : cabac=1 / ref=4 / deblock=1:-3:-3 / analyse=0x3:0x133 / me=umh / subme=10 / psy=1 / psy_rd=1.00:0.00 / mixed_ref=1 / me_range=32 / chroma_me=1 / trellis=2 / 8x8dct=1 / cqm=0 / deadzone=21,11 / fast_pskip=0 / chroma_qp_offset=-2 / threads=6 / lookahead_threads=1 / sliced_threads=0 / nr=0 / decimate=0 / interlaced=0 / bluray_compat=0 / constrained_intra=0 / bframes=16 / b_pyramid=2 / b_adapt=2 / b_bias=0 / direct=3 / weightb=1 / open_gop=0 / weightp=1 / keyint=240 / keyint_min=24 / scenecut=40 / intra_refresh=0 / rc_lookahead=60 / rc=crf / mbtree=0 / crf=18.0 / qcomp=0.60 / qpmin=0 / qpmax=69 / qpstep=4 / vbv_maxrate=62500 / vbv_bufsize=78125 / crf_max=0.0 / nal_hrd=none / filler=0 / ip_ratio=1.40 / pb_ratio=1.30 / aq=2:1.00
Default                                  : Yes
Forced                                   : No
Color range                              : Limited
Color primaries                          : BT.709
Transfer characteristics                 : BT.709
Matrix coefficients                      : BT.709

Audio
ID                                       : 2
Format                                   : AC-3
Format/Info                              : Audio Coding 3
Commercial name                          : Dolby Digital
Codec ID                                 : A_AC3
Duration                                 : 22 min 4 s
Bit rate mode                            : Constant
Bit rate                                 : 320 kb/s
Channel(s)                               : 2 channels
Channel layout                           : L R
Sampling rate                            : 48.0 kHz
Frame rate                               : 31.250 FPS (1536 SPF)
Bit depth                                : 16 bits
Compression mode                         : Lossy
Stream size                              : 50.5 MiB (3%)
Language                                 : English
Service kind                             : Complete Main
Default                                  : Yes
Forced                                   : No

Text #1
ID                                       : 3
Format                                   : UTF-8
Codec ID                                 : S_TEXT/UTF8
Codec ID/Info                            : UTF-8 Plain Text
Duration                                 : 21 min 48 s
Bit rate                                 : 80 b/s
Count of elements                        : 464
Stream size                              : 12.9 KiB (0%)
Language                                 : English
Default                                  : No
Forced                                   : No

Text #2
ID                                       : 4
Format                                   : PGS
Muxing mode                              : zlib
Codec ID                                 : S_HDMV/PGS
Codec ID/Info                            : Picture based subtitle format used on BDs/HD-DVDs
Duration                                 : 20 min 59 s
Bit rate                                 : 29.2 kb/s
Count of elements                        : 706
Stream size                              : 4.39 MiB (0%)
Title                                    : Traditional (Hong Kong)
Language                                 : Chinese
Default                                  : No
Forced                                   : No

Text #3
ID                                       : 5
Format                                   : PGS
Muxing mode                              : zlib
Codec ID                                 : S_HDMV/PGS
Codec ID/Info                            : Picture based subtitle format used on BDs/HD-DVDs
Duration                                 : 20 min 59 s
Bit rate                                 : 30.6 kb/s
Count of elements                        : 752
Stream size                              : 4.60 MiB (0%)
Title                                    : Traditional (English pronunciation)
Language                                 : Chinese
Default                                  : No
Forced                                   : No

Text #4
ID                                       : 6
Format                                   : PGS
Muxing mode                              : zlib
Codec ID                                 : S_HDMV/PGS
Codec ID/Info                            : Picture based subtitle format used on BDs/HD-DVDs
Duration                                 : 20 min 59 s
Bit rate                                 : 30.2 kb/s
Count of elements                        : 698
Stream size                              : 4.54 MiB (0%)
Title                                    : Traditional (Native pronunciation)
Language                                 : Chinese
Default                                  : No
Forced                                   : No

Text #5
ID                                       : 7
Format                                   : PGS
Muxing mode                              : zlib
Codec ID                                 : S_HDMV/PGS
Codec ID/Info                            : Picture based subtitle format used on BDs/HD-DVDs
Duration                                 : 20 min 59 s
Bit rate                                 : 45.7 kb/s
Count of elements                        : 714
Stream size                              : 6.87 MiB (0%)
Language                                 : French
Default                                  : No
Forced                                   : No

Text #6
ID                                       : 8
Format                                   : PGS
Muxing mode                              : zlib
Codec ID                                 : S_HDMV/PGS
Codec ID/Info                            : Picture based subtitle format used on BDs/HD-DVDs
Duration                                 : 20 min 59 s
Bit rate                                 : 23.7 kb/s
Count of elements                        : 698
Stream size                              : 3.57 MiB (0%)
Language                                 : Korean
Default                                  : No
Forced                                   : No

Text #7
ID                                       : 9
Format                                   : PGS
Muxing mode                              : zlib
Codec ID                                 : S_HDMV/PGS
Codec ID/Info                            : Picture based subtitle format used on BDs/HD-DVDs
Duration                                 : 21 min 0 s
Bit rate                                 : 43.0 kb/s
Count of elements                        : 718
Stream size                              : 6.45 MiB (0%)
Language                                 : Spanish
Default                                  : No
Forced                                   : No


悠悠MP4_MP4电影下载_雪宝的冰雪大冒险/冰雪奇缘番外短片 Olafs.Frozen.Adventure.2017.1080p.BluRay.x264-HANDJOB 1.44GB悠悠MP4_MP4电影下载_雪宝的冰雪大冒险/冰雪奇缘番外短片 Olafs.Frozen.Adventure.2017.1080p.BluRay.x264-HANDJOB 1.44GB悠悠MP4_MP4电影下载_雪宝的冰雪大冒险/冰雪奇缘番外短片 Olafs.Frozen.Adventure.2017.1080p.BluRay.x264-HANDJOB 1.44GB


提示:如迅雷下载提示"任务出错"、"因版权无法下载",请尝试【迅雷5】
上传的附件:
最新回复 (0)
返回
本站所有资源均收集自互联网,没有提供影片资源存储, 也未参与录制、上传,若本站收录的资源无意侵犯了您的权益, 请联系邮箱:gogoimgs#gmail.com(#=@)