[2017] [欧美] [其他] [BD-4K] 雪宝的冰雪大冒险/冰雪奇缘番外短片 Olafs.Frozen.Adventure.2017.2160p.DSNP.WEBRip.x265.10bit.HDR.D

uump4 3天前 86

帖子完整标题:雪宝的冰雪大冒险/冰雪奇缘番外短片 Olafs.Frozen.Adventure.2017.2160p.DSNP.WEBRip.x265.10bit.HDR.DDP5.1-TrollUHD 1.71GB


悠悠MP4_MP4电影下载_雪宝的冰雪大冒险/冰雪奇缘番外短片 Olafs.Frozen.Adventure.2017.2160p.DSNP.WEBRip.x265.10bit.HDR.D

◎译  名 雪宝的冰雪大冒险 / 冰雪奇缘番外短片 / 雪宝的佳节冒险
◎片  名 Olaf's Frozen Adventure
◎年  代 2017
◎产  地 美国
◎类  别 动画 / 短片 / 歌舞 / 奇幻 / 冒险
◎语  言 英语
◎上映日期 2017-11-22(美国)
◎IMDb评分 5.4/10 from 9763 users
◎IMDb链接 https://www.imdb.com/title/tt5452780
◎豆瓣评分 7.6/10 from 3236 users
◎豆瓣链接 https://movie.douban.com/subject/27006488/
◎片  长 21分钟
◎导  演 凯文·迪特斯 Kevin Deters / 施特维·韦默斯 Stevie Wermers
◎编  剧 克里斯·巴克 Chris Buck / 珍妮弗·李 Jennifer Lee / 雅克·舍费尔 Jac Schaeffer
◎主  演 克里斯汀·贝尔 Kristen Bell
      伊迪娜·门泽尔 Idina Menzel
      乔什·加德 Josh Gad
      乔纳森·格罗夫 Jonathan Groff
      玛格·卡拉·苏西 Margaux Calla Susi


◎标  签 动画 | 短片 | 美国 | 迪士尼 | 冰雪奇缘 | 动画短片 | 2017 | 奇幻

◎简  介

  在阿伦黛尔城堡大门打开后的第一个圣诞节前,安娜和艾莎为所有人准备了一个惊喜派对。但王国里的人们都不来参加,而是要根据自己家的传统与家人一起过节。安娜和艾莎多年没有在一起过圣诞节,因此没有家庭传统!为此,雪宝踏上了一场为姐妹俩寻找最棒传统的冒险……
  《雪宝的冰雪大冒险》是迪士尼动画电影《冰雪奇缘》(Frozen)的第二部衍生短片,在2017年上映的皮克斯电影《寻梦环游记》(Coco)前贴片放映。

◎获奖情况

  第45届动画安妮奖(2018)
  最佳配乐(提名) 克里斯托弗·贝克
  最佳动画效果(提名)
  最佳特殊动画(提名)
Video
ID : 1
Format : HEVC
Format/Info : High Efficiency Video Coding
Format profile : Main [email protected]@Main
Codec ID : V_MPEGH/ISO/HEVC
Duration : 21 min 52 s
Bit rate : 10.9 Mb/s
Width : 3 840 pixels
Height : 2 160 pixels
Display aspect ratio : 16:9
Frame rate mode : Constant
Frame rate : 23.976 (24000/1001) FPS
Color space : YUV
Chroma subsampling : 4:2:0
Bit depth : 10 bits
Bits/(Pixel*Frame) : 0.055
Stream size : 1.67 GiB (98%)
Writing library : x265 3.27fc1f6ef2b96:[Windows][MSVC 1923][64 bit] 10bit
Encoding settings : cpuid=1111039 / frame-threads=4 / numa-pools=28 / wpp / no-pmode / no-pme / no-psnr / no-ssim / log-level=2 / input-csp=1 / input-res=3840x2160 / interlace=0 / total-frames=0 / level-idc=0 / high-tier=1 / uhd-bd=0 / ref=5 / no-allow-non-conformance / repeat-headers / annexb / no-aud / no-hrd / info / hash=0 / no-temporal-layers / open-gop / min-keyint=23 / keyint=250 / gop-lookahead=0 / bframes=8 / b-adapt=2 / b-pyramid / bframe-bias=0 / rc-lookahead=40 / lookahead-slices=0 / scenecut=40 / radl=0 / no-splice / no-intra-refresh / ctu=64 / min-cu-size=8 / no-rect / no-amp / max-tu-size=32 / tu-inter-depth=3 / tu-intra-depth=3 / limit-tu=0 / rdoq-level=1 / dynamic-rd=0.00 / no-ssim-rd / signhide / no-tskip / nr-intra=0 / nr-inter=0 / no-constrained-intra / strong-intra-smoothing / max-merge=5 / limit-refs=0 / no-limit-modes / me=3 / subme=4 / merange=57 / temporal-mvp / no-frame-dup / no-hme / weightp / weightb / no-analyze-src-pics / deblock=0:0 / no-sao / no-sao-non-deblock / rd=6 / selective-sao=0 / no-early-skip / rskip / no-fast-intra / no-tskip-fast / no-cu-lossless / b-intra / no-splitrd-skip / rdpenalty=0 / psy-rd=4.00 / psy-rdoq=8.00 / no-rd-refine / no-lossless / cbqpoffs=0 / crqpoffs=0 / rc=crf / crf=15.0 / qcomp=0.60 / qpstep=4 / stats-write=0 / stats-read=0 / ipratio=1.40 / pbratio=1.30 / aq-mode=2 / aq-strength=1.00 / cutree / zone-count=0 / no-strict-cbr / qg-size=32 / no-rc-grain / qpmax=69 / qpmin=0 / no-const-vbv / sar=0 / overscan=0 / videoformat=5 / range=0 / colorprim=9 / transfer=16 / colormatrix=9 / chromaloc=0 / display-window=0 / cll=0,0 / min-luma=0 / max-luma=1023 / log2-max-poc-lsb=8 / vui-timing-info / vui-hrd-info / slices=1 / no-opt-qp-pps / no-opt-ref-list-length-pps / no-multi-pass-opt-rps / scenecut-bias=0.05 / no-opt-cu-delta-qp / no-aq-motion / hdr / hdr-opt / no-dhdr10-opt / no-idr-recovery-sei / analysis-reuse-level=5 / scale-factor=0 / refine-intra=0 / refine-inter=0 / refine-mv=1 / refine-ctu-distortion=0 / no-limit-sao / ctu-info=0 / no-lowpass-dct / refine-analysis-type=0 / copy-pic=1 / max-ausize-factor=1.0 / no-dynamic-refine / no-single-sei / no-hevc-aq / no-svt / no-field / qp-adaptation-range=1.00
Default : Yes
Forced : No
Color range : Limited
Color primaries : BT.2020
Transfer characteristics : PQ
Matrix coefficients : BT.2020 non-constant

Audio
ID : 2
Format : E-AC-3
Format/Info : Enhanced AC-3
Commercial name : Dolby Digital Plus
Codec ID : A_EAC3
Duration : 21 min 51 s
Bit rate mode : Constant
Bit rate : 256 kb/s
Channel(s) : 6 channels
Channel layout : L R C LFE Ls Rs
Sampling rate : 48.0 kHz
Frame rate : 31.250 FPS (1536 SPF)
Compression mode : Lossy
Stream size : 40.0 MiB (2%)
Language : English
Service kind : Complete Main
Default : Yes
Forced : No

Text #1
ID : 3
Format : UTF-8
Codec ID : S_TEXT/UTF8
Codec ID/Info : UTF-8 Plain Text
Duration : 20 min 57 s
Bit rate : 89 b/s
Count of elements : 446
Stream size : 13.7 KiB (0%)
Language : English
Default : No
Forced : No

Text #2
ID : 4
Format : UTF-8
Codec ID : S_TEXT/UTF8
Codec ID/Info : UTF-8 Plain Text
Duration : 20 min 58 s
Bit rate : 74 b/s
Count of elements : 355
Stream size : 11.5 KiB (0%)
Language : Spanish
Default : No
Forced : No

Text #3
ID : 5
Format : UTF-8
Codec ID : S_TEXT/UTF8
Codec ID/Info : UTF-8 Plain Text
Duration : 20 min 58 s
Bit rate : 64 b/s
Count of elements : 270
Stream size : 9.94 KiB (0%)
Language : Dutch
Default : No
Forced : No

悠悠MP4_MP4电影下载_雪宝的冰雪大冒险/冰雪奇缘番外短片 Olafs.Frozen.Adventure.2017.2160p.DSNP.WEBRip.x265.10bit.HDR.D悠悠MP4_MP4电影下载_雪宝的冰雪大冒险/冰雪奇缘番外短片 Olafs.Frozen.Adventure.2017.2160p.DSNP.WEBRip.x265.10bit.HDR.D悠悠MP4_MP4电影下载_雪宝的冰雪大冒险/冰雪奇缘番外短片 Olafs.Frozen.Adventure.2017.2160p.DSNP.WEBRip.x265.10bit.HDR.D


提示:如迅雷下载提示"任务出错"、"因版权无法下载",请尝试【迅雷5】
上传的附件:
最新回复 (0)
返回
本站所有资源均收集自互联网,没有提供影片资源存储, 也未参与录制、上传,若本站收录的资源无意侵犯了您的权益, 请联系邮箱:gogoimgs#gmail.com(#=@)