[2019] [欧美] [科幻] [WEB-1080P] 星际探索/星际任务 Ad.Astra.2019.1080p.AMZN.WEBRip.DDP5.1.x264-NTG 7.78GB

uump4 10天前 218

帖子完整标题:星际探索/星际任务 Ad.Astra.2019.1080p.AMZN.WEBRip.DDP5.1.x264-NTG 7.78GB


悠悠MP4_MP4电影下载_星际探索/星际任务 Ad.Astra.2019.1080p.AMZN.WEBRip.DDP5.1.x264-NTG 7.78GB

◎译  名 星际探索 / 星际任务(港) / 星际探险 / 星际救援(台)
◎片  名 Ad Astra
◎年  代 2019
◎产  地 美国
◎类  别 科幻 / 悬疑 / 冒险 / 灾难
◎语  言 英语
◎上映日期 2019-08-29(威尼斯电影节) / 2019-09-20(美国) / 2019-12-06(中国大陆)
◎IMDb评分  7.0/10 from 68398 users
◎IMDb链接  https://www.imdb.com/title/tt2935510
◎豆瓣评分 6.8/10 from 4215 users
◎豆瓣链接 https://movie.douban.com/subject/24716039/
◎片  长 124分钟
◎导  演 詹姆士·格雷 James Gray
◎编  剧 詹姆士·格雷 James Gray / 伊森·格罗斯 Ethan Gross
◎主  演 布拉德·皮特 Brad Pitt
       汤米·李·琼斯 Tommy Lee Jones
       鲁丝·内伽 Ruth Negga
       唐纳德·萨瑟兰 Donald Sutherland
       丽芙·泰勒 Liv Tyler
       肖恩·布莱克默 Sean Blakemore
       约翰·芬 John Finn
       杰米·肯尼迪 Jamie Kennedy
       格雷格·布瑞克 Greg Bryk
       吉米·希尔兹 Kimmy Shields
       丽莎·盖伊·汉密尔顿 Lisa Gay Hamilton
       劳恩·迪恩 Loren Dean
       约翰·奥提兹 John Ortiz
       金伯莉·伊丽丝 Kimberly Elise
       丹尼尔·萨乌利 Daniel Sauli
       安妮·麦克代尼尔斯 Anne McDaniels
       艾莉森·瑞德 Alyson Reed
       唐尼·科沙瓦茨 Donnie Keshawarz
       马洛里露 Mallory Low
       希拉·M·洛克哈特 Sheila M. Lockhart


◎标  签 科幻 | 太空 | 宇宙 | 美国 | 2019 | 冒险 | 惊悚 | 星际

◎简  介  

  地球上接连出现神秘怪象,科学家发现某种失控的反物质反应正在威胁整个太阳系,人类生存极度堪忧……地球生死攸关之际,天才航天工程师罗伊(布拉德·皮特 饰)被派往外太空,试图揭开谜团拯救人类。这是一场横跨地球、月球、火星、海王星,穿越整个太阳系的硬核冒险,一路危机重重险象环生,罗伊直面爆炸、陨石、月球飙车枪战、神秘生物等意想不到的考验,还找回了失联20年的父亲!当年罗伊的父亲(汤米·李·琼斯 饰)离开地球探寻外星智慧生物,结果任务失败,消失在茫茫宇宙之中。如今父子重逢,罗伊在太空深处发现了不为人知的秘密,渐渐触达所有事件的终极真相……

◎获奖情况  

  第76届威尼斯电影节(2019)
  主竞赛单元 金狮奖 (提名) 詹姆斯·格雷

Video
ID                                       : 1
Format                                   : AVC
Format/Info                              : Advanced Video Codec
Format profile                           : [email protected]
Format settings                          : CABAC / 4 Ref Frames
Format settings, CABAC                   : Yes
Format settings, Reference frames        : 4 frames
Codec ID                                 : V_MPEG4/ISO/AVC
Duration                                 : 2 h 3 min
Bit rate mode                            : Constant
Bit rate                                 : 8 415 kb/s
Nominal bit rate                         : 10 000 kb/s
Width                                    : 1 920 pixels
Height                                   : 800 pixels
Display aspect ratio                     : 2.40:1
Frame rate mode                          : Constant
Frame rate                               : 23.976 (24000/1001) FPS
Color space                              : YUV
Chroma subsampling                       : 4:2:0
Bit depth                                : 8 bits
Scan type                                : Progressive
Bits/(Pixel*Frame)                       : 0.228
Stream size                              : 7.23 GiB (93%)
Default                                  : Yes
Forced                                   : No
Color range                              : Limited
Color primaries                          : BT.709
Transfer characteristics                 : BT.709
Matrix coefficients                      : BT.709

Audio
ID                                       : 2
Format                                   : E-AC-3
Format/Info                              : Enhanced AC-3
Commercial name                          : Dolby Digital Plus
Codec ID                                 : A_EAC3
Duration                                 : 2 h 3 min
Bit rate mode                            : Constant
Bit rate                                 : 640 kb/s
Channel(s)                               : 6 channels
Channel layout                           : L R C LFE Ls Rs
Sampling rate                            : 48.0 kHz
Frame rate                               : 31.250 FPS (1536 SPF)
Compression mode                         : Lossy
Stream size                              : 563 MiB (7%)
Language                                 : English
Service kind                             : Complete Main
Default                                  : Yes
Forced                                   : No

Text #1
ID                                       : 3
Format                                   : UTF-8
Codec ID                                 : S_TEXT/UTF8
Codec ID/Info                            : UTF-8 Plain Text
Duration                                 : 2 h 0 min
Bit rate                                 : 43 b/s
Count of elements                        : 1261
Stream size                              : 38.7 KiB (0%)
Language                                 : English
Default                                  : No
Forced                                   : No

Text #2
ID                                       : 4
Format                                   : UTF-8
Codec ID                                 : S_TEXT/UTF8
Codec ID/Info                            : UTF-8 Plain Text
Duration                                 : 2 h 0 min
Bit rate                                 : 46 b/s
Count of elements                        : 1396
Stream size                              : 41.3 KiB (0%)
Title                                    : SDH
Language                                 : English
Default                                  : No
Forced                                   : No


悠悠MP4_MP4电影下载_星际探索/星际任务 Ad.Astra.2019.1080p.AMZN.WEBRip.DDP5.1.x264-NTG 7.78GB悠悠MP4_MP4电影下载_星际探索/星际任务 Ad.Astra.2019.1080p.AMZN.WEBRip.DDP5.1.x264-NTG 7.78GB悠悠MP4_MP4电影下载_星际探索/星际任务 Ad.Astra.2019.1080p.AMZN.WEBRip.DDP5.1.x264-NTG 7.78GB


提示:如迅雷下载提示"任务出错"、"因版权无法下载",请尝试【迅雷5】
上传的附件:
最新回复 (0)
返回
本站所有资源均收集自互联网,没有提供影片资源存储, 也未参与录制、上传,若本站收录的资源无意侵犯了您的权益, 请联系邮箱:gogoimgs#gmail.com(#=@)