[更早] [欧美] [动作] [BD-4K] 星球大战前传1:幽灵的威胁/星战前传之魅影危机 Star.Wars.Episode.I.The.Phantom.Menace.1999.2160p.DSNP.W

uump4 3天前 125

帖子完整标题:星球大战前传1:幽灵的威胁/星战前传之魅影危机 Star.Wars.Episode.I.The.Phantom.Menace.1999.2160p.DSNP.WEBRip.x265.10bit.HDR.DTS-HD.MA.6.1-TrollUHD 21.41GB


悠悠MP4_MP4电影下载_星球大战前传1:幽灵的威胁/星战前传之魅影危机 Star.Wars.Episode.I.The.Phantom.Menace.1999.2160p.DSNP.W

◎译  名 星球大战前传1:幽灵的威胁 / 星战前传之魅影危机 / 星球大战前传I:魅影危机(港) / 星球大战第一集:幽灵的威胁 / 星际大战首部曲:威胁潜伏(台)
◎片  名 Star Wars: Episode I - The Phantom Menace
◎年  代 1999
◎产  地 美国
◎类  别 动作 / 科幻 / 冒险
◎语  言 英语
◎上映日期 1999-05-19(美国) / 1999-11-05(中国大陆) / 2012-02-10(美国)
◎IMDb评分  6.5/10 from 661443 users
◎IMDb链接  http://www.imdb.com/title/tt0120915
◎豆瓣评分 8.1/10 from 79480 users
◎豆瓣链接 https://movie.douban.com/subject/1294362/
◎片  长 136 分钟
◎导  演 乔治·卢卡斯 George Lucas
◎编  剧 乔治·卢卡斯 George Lucas
◎主  演 连姆·尼森 Liam Neeson
       伊万·麦克格雷格 Ewan McGregor
       娜塔莉·波特曼 Natalie Portman
       杰克·洛伊德 Jake Lloyd
       伊恩·麦克迪阿梅德 Ian McDiarmid
       潘妮拉·奥古斯特 Pernilla August
       奥利弗·福德·戴维斯 Oliver Ford Davies
       阿梅德·贝斯特 Ahmed Best
       安东尼·丹尼尔斯 Anthony Daniels
       肯尼·贝克 Kenny Baker
       弗兰克·奥兹 Frank Oz
       特伦斯·斯坦普 Terence Stamp
       布耐恩·布莱塞得 Brian Blessed
       安德鲁·斯考姆比 Andrew Secombe
       休·夸希 Hugh Quarshie


◎标  签 科幻 | 星球大战 | 美国 | 经典 | 1999 | 动作 | 冒险 | 战争

◎简  介  

  作为星球大战前传系列的首部曲,这部电影诞生了一个重要的人物:阿纳金(杰克·洛伊德 Jake Lloyd  . 饰)。银河国会会议上出现了利益争执,纳布星的女王阿米达拉(娜塔丽·波特曼 Natalie Portman   饰)被贸易联盟绑架并威胁签署新的贸易协议。绝地武士奎刚(连姆·尼森 Liam Neeson 饰)及徒弟欧比-旺?肯诺比(伊万·麦克格雷格 Ewan McGregor  饰)受命前去解决纠纷,维护和平。他们的飞船在塔图因星意外降落的时候遇到了阿纳金并且带走了他。
  在奇异天才少年阿纳金等人的帮助下,奎刚及欧比-旺与贸易联盟的机器人部队和西斯武士展开了决斗.....

◎获奖情况  

  第72届奥斯卡金像奖(2000)
  最佳视觉效果(提名) 丹尼斯·穆伦 / Rob Coleman / 约翰·诺尔 / Scott Squires
  最佳音效剪辑(提名) 汤姆·贝尔福特 / 本·贝尔特
  最佳音响(提名) 嘉里·瑞德斯托姆 / 约翰·米奇利 / Shawn Murphy / 汤姆·约翰逊

  第53届英国电影学院奖(2000)
  电影奖 最佳特殊视觉效果(提名) Rob Coleman / 丹尼斯·穆伦 / Scott Squires / 约翰·诺尔
  电影奖 最佳音效(提名) 汤姆·约翰逊 / 汤姆·贝尔福特 / 约翰·米奇利 / Shawn Murphy / 嘉里·瑞德斯托姆 / 本·贝尔特 / 汤姆·约翰逊 / 汤姆·贝尔福特 / 约翰·米奇利 / Shawn Murphy / 嘉里·瑞德斯托姆 / 本·贝尔特

Video
ID                                       : 1
Format                                   : HEVC
Format/Info                              : High Efficiency Video Coding
Format profile                           : Main [email protected]@Main
Codec ID                                 : V_MPEGH/ISO/HEVC
Duration                                 : 2 h 16 min
Bit rate                                 : 17.1 Mb/s
Width                                    : 3 840 pixels
Height                                   : 1 608 pixels
Display aspect ratio                     : 2.40:1
Frame rate mode                          : Constant
Frame rate                               : 23.976 (24000/1001) FPS
Color space                              : YUV
Chroma subsampling                       : 4:2:0
Bit depth                                : 10 bits
Bits/(Pixel*Frame)                       : 0.115
Stream size                              : 16.3 GiB (76%)
Writing library                          : x265 3.2971180b100f8:[Windows][MSVC 1923][64 bit] 10bit
Encoding settings                        : cpuid=1111039 / frame-threads=4 / numa-pools=0,28 / wpp / no-pmode / no-pme / no-psnr / no-ssim / log-level=2 / input-csp=1 / input-res=3840x1608 / interlace=0 / total-frames=0 / level-idc=0 / high-tier=1 / uhd-bd=0 / ref=5 / no-allow-non-conformance / repeat-headers / annexb / no-aud / no-hrd / info / hash=0 / no-temporal-layers / open-gop / min-keyint=23 / keyint=250 / gop-lookahead=0 / bframes=8 / b-adapt=2 / b-pyramid / bframe-bias=0 / rc-lookahead=40 / lookahead-slices=0 / scenecut=40 / radl=0 / no-splice / no-intra-refresh / ctu=64 / min-cu-size=8 / no-rect / no-amp / max-tu-size=32 / tu-inter-depth=3 / tu-intra-depth=3 / limit-tu=0 / rdoq-level=1 / dynamic-rd=0.00 / no-ssim-rd / signhide / no-tskip / nr-intra=0 / nr-inter=0 / no-constrained-intra / strong-intra-smoothing / max-merge=5 / limit-refs=0 / no-limit-modes / me=3 / subme=4 / merange=57 / temporal-mvp / no-frame-dup / no-hme / weightp / weightb / no-analyze-src-pics / deblock=0:0 / no-sao / no-sao-non-deblock / rd=6 / selective-sao=0 / no-early-skip / rskip / no-fast-intra / no-tskip-fast / no-cu-lossless / b-intra / no-splitrd-skip / rdpenalty=0 / psy-rd=4.00 / psy-rdoq=8.00 / no-rd-refine / no-lossless / cbqpoffs=0 / crqpoffs=0 / rc=crf / crf=13.0 / qcomp=0.60 / qpstep=4 / stats-write=0 / stats-read=0 / ipratio=1.40 / pbratio=1.30 / aq-mode=2 / aq-strength=1.00 / cutree / zone-count=0 / no-strict-cbr / qg-size=32 / no-rc-grain / qpmax=69 / qpmin=0 / no-const-vbv / sar=0 / overscan=0 / videoformat=5 / range=0 / colorprim=9 / transfer=16 / colormatrix=9 / chromaloc=0 / display-window=0 / cll=0,0 / min-luma=0 / max-luma=1023 / log2-max-poc-lsb=8 / vui-timing-info / vui-hrd-info / slices=1 / no-opt-qp-pps / no-opt-ref-list-length-pps / no-multi-pass-opt-rps / scenecut-bias=0.05 / no-opt-cu-delta-qp / no-aq-motion / hdr / hdr-opt / no-dhdr10-opt / no-idr-recovery-sei / analysis-reuse-level=5 / scale-factor=0 / refine-intra=0 / refine-inter=0 / refine-mv=1 / refine-ctu-distortion=0 / no-limit-sao / ctu-info=0 / no-lowpass-dct / refine-analysis-type=0 / copy-pic=1 / max-ausize-factor=1.0 / no-dynamic-refine / no-single-sei / no-hevc-aq / no-svt / no-field / qp-adaptation-range=1.00
Default                                  : Yes
Forced                                   : No
Color range                              : Limited
Color primaries                          : BT.2020
Transfer characteristics                 : PQ
Matrix coefficients                      : BT.2020 non-constant

Audio #1
ID                                       : 2
Format                                   : DTS ES XXCH XLL
Format/Info                              : Digital Theater Systems
Commercial name                          : DTS-HD Master Audio
Codec ID                                 : A_DTS
Duration                                 : 2 h 16 min
Bit rate mode                            : Variable
Bit rate                                 : 4 815 kb/s
Channel(s)                               : 7 channels
Channel layout                           : C L R Ls Rs LFE Cb
Sampling rate                            : 48.0 kHz
Frame rate                               : 93.750 FPS (512 SPF)
Bit depth                                : 24 bits
Compression mode                         : Lossless
Stream size                              : 4.58 GiB (21%)
Title                                    : DTS-HD MA 6.1
Default                                  : Yes
Forced                                   : No

Audio #2
ID                                       : 3
Format                                   : AC-3
Format/Info                              : Audio Coding 3
Commercial name                          : Dolby Digital
Codec ID                                 : A_AC3
Duration                                 : 2 h 16 min
Bit rate mode                            : Constant
Bit rate                                 : 224 kb/s
Channel(s)                               : 2 channels
Channel layout                           : L R
Sampling rate                            : 48.0 kHz
Frame rate                               : 31.250 FPS (1536 SPF)
Bit depth                                : 16 bits
Compression mode                         : Lossy
Stream size                              : 218 MiB (1%)
Title                                    : George Lucas Commentary
Service kind                             : Complete Main
Default                                  : No
Forced                                   : No

Audio #3
ID                                       : 4
Format                                   : AC-3
Format/Info                              : Audio Coding 3
Commercial name                          : Dolby Digital
Codec ID                                 : A_AC3
Duration                                 : 2 h 16 min
Bit rate mode                            : Constant
Bit rate                                 : 224 kb/s
Channel(s)                               : 2 channels
Channel layout                           : L R
Sampling rate                            : 48.0 kHz
Frame rate                               : 31.250 FPS (1536 SPF)
Bit depth                                : 16 bits
Compression mode                         : Lossy
Stream size                              : 218 MiB (1%)
Title                                    : Cast and Crew Commentary
Service kind                             : Complete Main
Default                                  : No
Forced                                   : No

Text #1
ID                                       : 5
Format                                   : PGS
Muxing mode                              : zlib
Codec ID                                 : S_HDMV/PGS
Codec ID/Info                            : Picture based subtitle format used on BDs/HD-DVDs
Duration                                 : 2 h 16 min
Bit rate                                 : 369 b/s
Count of elements                        : 60
Stream size                              : 368 KiB (0%)
Title                                    : English - Alien Only
Language                                 : English
Default                                  : No
Forced                                   : No

Text #2
ID                                       : 6
Format                                   : PGS
Muxing mode                              : zlib
Codec ID                                 : S_HDMV/PGS
Codec ID/Info                            : Picture based subtitle format used on BDs/HD-DVDs
Duration                                 : 2 h 16 min
Bit rate                                 : 51.9 kb/s
Count of elements                        : 3317
Stream size                              : 50.5 MiB (0%)
Title                                    : English
Language                                 : English
Default                                  : No
Forced                                   : No

Text #3
ID                                       : 7
Format                                   : PGS
Muxing mode                              : zlib
Codec ID                                 : S_HDMV/PGS
Codec ID/Info                            : Picture based subtitle format used on BDs/HD-DVDs
Duration                                 : 2 h 16 min
Bit rate                                 : 39.4 kb/s
Count of elements                        : 2702
Stream size                              : 38.3 MiB (0%)
Language                                 : Portuguese
Default                                  : No
Forced                                   : No

Text #4
ID                                       : 8
Format                                   : PGS
Muxing mode                              : zlib
Codec ID                                 : S_HDMV/PGS
Codec ID/Info                            : Picture based subtitle format used on BDs/HD-DVDs
Duration                                 : 2 h 16 min
Bit rate                                 : 37.5 kb/s
Count of elements                        : 2826
Stream size                              : 36.5 MiB (0%)
Language                                 : Finnish
Default                                  : No
Forced                                   : No

Text #5
ID                                       : 9
Format                                   : PGS
Muxing mode                              : zlib
Codec ID                                 : S_HDMV/PGS
Codec ID/Info                            : Picture based subtitle format used on BDs/HD-DVDs
Duration                                 : 2 h 16 min
Bit rate                                 : 35.4 kb/s
Count of elements                        : 2758
Stream size                              : 34.5 MiB (0%)
Language                                 : Swedish
Default                                  : No
Forced                                   : No

Text #6
ID                                       : 10
Format                                   : PGS
Muxing mode                              : zlib
Codec ID                                 : S_HDMV/PGS
Codec ID/Info                            : Picture based subtitle format used on BDs/HD-DVDs
Duration                                 : 2 h 16 min
Bit rate                                 : 36.5 kb/s
Count of elements                        : 2792
Stream size                              : 35.5 MiB (0%)
Language                                 : Norwegian
Default                                  : No
Forced                                   : No

Text #7
ID                                       : 11
Format                                   : PGS
Muxing mode                              : zlib
Codec ID                                 : S_HDMV/PGS
Codec ID/Info                            : Picture based subtitle format used on BDs/HD-DVDs
Duration                                 : 2 h 16 min
Bit rate                                 : 39.2 kb/s
Count of elements                        : 2750
Stream size                              : 38.1 MiB (0%)
Language                                 : Danish
Default                                  : No
Forced                                   : No

Text #8
ID                                       : 12
Format                                   : PGS
Muxing mode                              : zlib
Codec ID                                 : S_HDMV/PGS
Codec ID/Info                            : Picture based subtitle format used on BDs/HD-DVDs
Duration                                 : 2 h 16 min
Bit rate                                 : 44.1 kb/s
Count of elements                        : 2698
Stream size                              : 43.0 MiB (0%)
Language                                 : Spanish
Default                                  : No
Forced                                   : No

Text #9
ID                                       : 13
Format                                   : PGS
Muxing mode                              : zlib
Codec ID                                 : S_HDMV/PGS
Codec ID/Info                            : Picture based subtitle format used on BDs/HD-DVDs
Duration                                 : 2 h 16 min
Bit rate                                 : 38.2 kb/s
Count of elements                        : 2652
Stream size                              : 37.2 MiB (0%)
Language                                 : French
Default                                  : No
Forced                                   : No

Text #10
ID                                       : 14
Format                                   : PGS
Muxing mode                              : zlib
Codec ID                                 : S_HDMV/PGS
Codec ID/Info                            : Picture based subtitle format used on BDs/HD-DVDs
Duration                                 : 2 h 15 min
Bit rate                                 : 35.8 kb/s
Count of elements                        : 2646
Stream size                              : 34.7 MiB (0%)
Language                                 : Dutch
Default                                  : No
Forced                                   : No

Menu
00:00:00.000                             : 01. Opening Logos
00:00:21.104                             : 02. The Phantom Menace
00:01:52.738                             : 03. Short Negotiations
00:07:55.350                             : 04. Queen Amidala
00:09:55.970                             : 05. Landing on Naboo
00:11:18.761                             : 06. Jar Jar Binks
00:13:24.178                             : 07. Otoh Gunga
00:14:49.806                             : 08. Boss Nass
00:17:14.242                             : 09. The Planet Core
00:20:40.948                             : 10. Invasion of Theed
00:22:25.302                             : 11. Suprise Rescue
00:25:12.886                             : 12. Running the Blockade
00:29:32.813                             : 13. Tatooine
00:31:41.483                             : 14. Watto\'s Shop
00:35:51.733                             : 15. Fateful Meetings
00:40:48.571                             : 16. Dinner Conversation
00:44:16.320                             : 17. Preparing for the Race
00:52:04.580                             : 18. A Wager with Watto
00:55:03.842                             : 19. Meet the Podracers
00:58:27.921                             : 20. Begin the \"Race\"
01:02:27.702                             : 21. Lap Two
01:05:33.012                             : 22. Home Stretch
01:10:06.911                             : 23. Collecting the Prize
01:11:17.940                             : 24. Choosing a New Path
01:16:20.951                             : 25. Darth Maul Attacks
01:18:08.100                             : 26. The Queen\'s Worries
01:20:26.363                             : 27. Arrival on Coruscant
01:24:18.178                             : 28. The Jedi Council
01:26:44.783                             : 29. Senate Session
01:29:54.723                             : 30. Testing Anakin
01:31:02.415                             : 31. Palpatine\'s Nomination
01:33:08.541                             : 32. Anakin\'s Future
01:37:21.419                             : 33. The Queen\'s Gambit
01:39:06.315                             : 34. A Plea to the Gungans
01:42:33.731                             : 35. Battle Plans
01:44:41.567                             : 36. \"Wipe Them Out\"
01:46:19.248                             : 37. Retaking the Palace
01:48:07.731                             : 38. The Conflict Continues
01:50:24.952                             : 39. Duel of the Fates
01:56:47.667                             : 40. Gungan Retreat
01:59:13.063                             : 41. Qui-Gon vs. Darth-Maul
02:00:31.391                             : 42. Capturing the Viceroy
02:01:21.316                             : 43. Obi-Wan vs. Darth Maul
02:02:23.378                             : 44. Control Ship Destroyed
02:03:56.971                             : 45. A Sith Vanquished
02:05:15.133                             : 46. Chancellor Palpatine Arrives
02:06:25.995                             : 47. New Knight, New Apprentice
02:07:23.177                             : 48. Farewell to a Jedi
02:08:28.993                             : 49. Naboo Celebration
02:09:53.536                             : 50. End Credits


悠悠MP4_MP4电影下载_星球大战前传1:幽灵的威胁/星战前传之魅影危机 Star.Wars.Episode.I.The.Phantom.Menace.1999.2160p.DSNP.W悠悠MP4_MP4电影下载_星球大战前传1:幽灵的威胁/星战前传之魅影危机 Star.Wars.Episode.I.The.Phantom.Menace.1999.2160p.DSNP.W悠悠MP4_MP4电影下载_星球大战前传1:幽灵的威胁/星战前传之魅影危机 Star.Wars.Episode.I.The.Phantom.Menace.1999.2160p.DSNP.W


提示:如迅雷下载提示"任务出错"、"因版权无法下载",请尝试【迅雷5】
上传的附件:
最新回复 (0)
返回
本站所有资源均收集自互联网,没有提供影片资源存储, 也未参与录制、上传,若本站收录的资源无意侵犯了您的权益, 请联系邮箱:gogoimgs#gmail.com(#=@)