[更早] [欧美] [动作] [BD-4K] 星球大战前传3:西斯的复仇/星战前传之西斯的复仇 Star.Wars.Episode.III.Revenge.Of.The.Sith.2005.2160p.DS

uump4 3天前 64

帖子完整标题:星球大战前传3:西斯的复仇/星战前传之西斯的复仇 Star.Wars.Episode.III.Revenge.Of.The.Sith.2005.2160p.DSNP.WEBRip.x265.10bit.HDR.DTS-HD.MA.6.1-TrollUHD 21.09GB


悠悠MP4_MP4电影下载_星球大战前传3:西斯的复仇/星战前传之西斯的复仇 Star.Wars.Episode.III.Revenge.Of.The.Sith.2005.2160p.DS

◎译  名 星球大战前传3:西斯的复仇 / 星战前传之西斯的复仇 / 星球大战前传III:黑帝君临(港) / 星球大战第三集:西斯的复仇 / 星际大战三部曲:西斯大帝的复仇(台) / 西斯的反击
◎片  名 Star Wars: Episode III - Revenge of the Sith
◎年  代 2005
◎产  地 美国
◎类  别 动作 / 科幻 / 冒险
◎语  言 英语
◎上映日期 2005-05-19(美国) / 2005-05-20(中国大陆)
◎IMDb评分 7.5/10 from 647722 users
◎IMDb链接 http://www.imdb.com/title/tt0121766
◎豆瓣评分 8.3/10 from 70634 users
◎豆瓣链接 https://movie.douban.com/subject/1309078/
◎片  长 140分钟
◎导  演 乔治·卢卡斯 George Lucas
◎编  剧 乔治·卢卡斯 George Lucas
◎主  演 伊万·麦克格雷格 Ewan McGregor
      娜塔莉·波特曼 Natalie Portman
      海登·克里斯滕森 Hayden Christensen
      伊恩·麦克迪阿梅德 Ian McDiarmid
      塞缪尔·杰克逊 Samuel L. Jackson
      吉米·斯密茨 Jimmy Smits
      弗兰克·奥兹 Frank Oz
      安东尼·丹尼尔斯 Anthony Daniels
      克里斯托弗·李 Christopher Lee
      凯莎·卡斯特-休伊斯 Keisha Castle-Hughes
      西拉斯·卡森 Silas Carson
      布鲁斯·斯宾斯 Bruce Spence
      韦恩·佩格拉姆 Wayne Pygram
      特穆拉·莫里森 Temuera Morrison


◎标  签 科幻 | 星球大战 | 美国 | 经典 | 2005 | 动作 | 冒险 | 战争

◎简  介

  克隆战争已经进行了三年,共和国即将胜利,分裂联盟的格非特将军和杜库伯爵(克里斯托弗?李 Christopher Lee 饰)劫持议会首相帕尔帕庭(伊恩·迈克蒂安米德Ian McDiarmid 饰)潜逃,绝地武士欧比-旺?肯诺比(伊万?麦克格雷格 Ewan McGregor 饰)和阿纳金(海登·克里斯滕森 Hayden Christensen 饰)奉长老院命前去营救,阿纳金杀死杜库伯爵救出帕尔帕庭,但格非特将军逃匿。阿纳金梦见妻子阿米达拉(娜塔丽·波特曼 Natalie Portman 饰)将死于难产,困惑中求助于帕尔帕庭,后者趁此机会离间阿纳金与绝地长老院。随着阿纳金向帕尔帕庭的靠拢,一场针对绝地武士与其所捍卫之民主的阴谋逐渐展开。
  本片提名2006年第78界奥斯卡最佳化妆奖,并提名格莱美最佳电影电视等视觉媒体原创音乐奖。

◎获奖情况

  第78届奥斯卡金像奖(2006)
  最佳化妆(提名) Dave Elsey / 尼基·古利

  第29届日本电影学院奖(2006)
  最佳外语片(提名)

  第15届MTV电影奖(2006)
  MTV电影奖 最佳打斗(提名) 伊万·麦克格雷格 / 海登·克里斯滕森
  MTV电影奖 最佳反派 海登·克里斯滕森
  MTV电影奖 最佳英雄形象(提名) 伊万·麦克格雷格
Video
ID : 1
Format : HEVC
Format/Info : High Efficiency Video Coding
Format profile : Main [email protected]@Main
Codec ID : V_MPEGH/ISO/HEVC
Duration : 2 h 20 min
Bit rate : 16.3 Mb/s
Width : 3 840 pixels
Height : 1 608 pixels
Display aspect ratio : 2.40:1
Frame rate mode : Constant
Frame rate : 23.976 (24000/1001) FPS
Color space : YUV
Chroma subsampling : 4:2:0
Bit depth : 10 bits
Bits/(Pixel*Frame) : 0.110
Stream size : 16.0 GiB (76%)
Writing library : x265 3.2971180b100f8:[Windows][MSVC 1923][64 bit] 10bit
Encoding settings : cpuid=1111039 / frame-threads=4 / numa-pools=28,0 / wpp / no-pmode / no-pme / no-psnr / no-ssim / log-level=2 / input-csp=1 / input-res=3840x1608 / interlace=0 / total-frames=0 / level-idc=0 / high-tier=1 / uhd-bd=0 / ref=5 / no-allow-non-conformance / repeat-headers / annexb / no-aud / no-hrd / info / hash=0 / no-temporal-layers / open-gop / min-keyint=23 / keyint=250 / gop-lookahead=0 / bframes=8 / b-adapt=2 / b-pyramid / bframe-bias=0 / rc-lookahead=40 / lookahead-slices=0 / scenecut=40 / radl=0 / no-splice / no-intra-refresh / ctu=64 / min-cu-size=8 / no-rect / no-amp / max-tu-size=32 / tu-inter-depth=3 / tu-intra-depth=3 / limit-tu=0 / rdoq-level=1 / dynamic-rd=0.00 / no-ssim-rd / signhide / no-tskip / nr-intra=0 / nr-inter=0 / no-constrained-intra / strong-intra-smoothing / max-merge=5 / limit-refs=0 / no-limit-modes / me=3 / subme=4 / merange=57 / temporal-mvp / no-frame-dup / no-hme / weightp / weightb / no-analyze-src-pics / deblock=0:0 / no-sao / no-sao-non-deblock / rd=6 / selective-sao=0 / no-early-skip / rskip / no-fast-intra / no-tskip-fast / no-cu-lossless / b-intra / no-splitrd-skip / rdpenalty=0 / psy-rd=4.00 / psy-rdoq=8.00 / no-rd-refine / no-lossless / cbqpoffs=0 / crqpoffs=0 / rc=crf / crf=17.0 / qcomp=0.60 / qpstep=4 / stats-write=0 / stats-read=0 / ipratio=1.40 / pbratio=1.30 / aq-mode=2 / aq-strength=1.00 / cutree / zone-count=0 / no-strict-cbr / qg-size=32 / no-rc-grain / qpmax=69 / qpmin=0 / no-const-vbv / sar=0 / overscan=0 / videoformat=5 / range=0 / colorprim=9 / transfer=16 / colormatrix=9 / chromaloc=0 / display-window=0 / cll=0,0 / min-luma=0 / max-luma=1023 / log2-max-poc-lsb=8 / vui-timing-info / vui-hrd-info / slices=1 / no-opt-qp-pps / no-opt-ref-list-length-pps / no-multi-pass-opt-rps / scenecut-bias=0.05 / no-opt-cu-delta-qp / no-aq-motion / hdr / hdr-opt / no-dhdr10-opt / no-idr-recovery-sei / analysis-reuse-level=5 / scale-factor=0 / refine-intra=0 / refine-inter=0 / refine-mv=1 / refine-ctu-distortion=0 / no-limit-sao / ctu-info=0 / no-lowpass-dct / refine-analysis-type=0 / copy-pic=1 / max-ausize-factor=1.0 / no-dynamic-refine / no-single-sei / no-hevc-aq / no-svt / no-field / qp-adaptation-range=1.00
Default : Yes
Forced : No
Color range : Limited
Color primaries : BT.2020
Transfer characteristics : PQ
Matrix coefficients : BT.2020 non-constant

Audio #1
ID : 2
Format : DTS ES XXCH XLL
Format/Info : Digital Theater Systems
Commercial name : DTS-HD Master Audio
Codec ID : A_DTS
Duration : 2 h 20 min
Bit rate mode : Variable
Bit rate : 4 403 kb/s
Channel(s) : 7 channels
Channel layout : C L R Ls Rs LFE Cb
Sampling rate : 48.0 kHz
Frame rate : 93.750 FPS (512 SPF)
Bit depth : 24 bits
Compression mode : Lossless
Stream size : 4.31 GiB (20%)
Title : DTS-HD MA / 6.1 / 48 kHz / 4403 kbps / 24-bit
Language : English
Default : Yes
Forced : No

Audio #2
ID : 3
Format : AC-3
Format/Info : Audio Coding 3
Commercial name : Dolby Digital
Codec ID : A_AC3
Duration : 2 h 20 min
Bit rate mode : Constant
Bit rate : 224 kb/s
Channel(s) : 2 channels
Channel layout : L R
Sampling rate : 48.0 kHz
Frame rate : 31.250 FPS (1536 SPF)
Bit depth : 16 bits
Compression mode : Lossy
Stream size : 224 MiB (1%)
Title : Commentary 1 / Dolby Digital / 2.0 / 48 kHz / 224 kbps
Language : English
Service kind : Complete Main
Default : No
Forced : No

Audio #3
ID : 4
Format : AC-3
Format/Info : Audio Coding 3
Commercial name : Dolby Digital
Codec ID : A_AC3
Duration : 2 h 20 min
Bit rate mode : Constant
Bit rate : 224 kb/s
Channel(s) : 2 channels
Channel layout : L R
Sampling rate : 48.0 kHz
Frame rate : 31.250 FPS (1536 SPF)
Bit depth : 16 bits
Compression mode : Lossy
Stream size : 224 MiB (1%)
Title : Commentary 2 / Dolby Digital / 2.0 / 48 kHz / 224 kbps
Language : English
Service kind : Complete Main
Default : No
Forced : No

Text #1
ID : 5
Format : PGS
Muxing mode : zlib
Codec ID : S_HDMV/PGS
Codec ID/Info : Picture based subtitle format used on BDs/HD-DVDs
Duration : 2 h 20 min
Bit rate : 34.4 kb/s
Count of elements : 2230
Stream size : 34.4 MiB (0%)
Language : English
Default : No
Forced : No

Text #2
ID : 6
Format : PGS
Muxing mode : zlib
Codec ID : S_HDMV/PGS
Codec ID/Info : Picture based subtitle format used on BDs/HD-DVDs
Duration : 2 h 20 min
Bit rate : 41.6 kb/s
Count of elements : 2942
Stream size : 41.6 MiB (0%)
Title : SDH
Language : English
Default : No
Forced : No

Text #3
ID : 7
Format : PGS
Muxing mode : zlib
Codec ID : S_HDMV/PGS
Codec ID/Info : Picture based subtitle format used on BDs/HD-DVDs
Duration : 2 h 19 min
Bit rate : 34.7 kb/s
Count of elements : 2192
Stream size : 34.7 MiB (0%)
Language : Bulgarian
Default : No
Forced : No

Text #4
ID : 8
Format : PGS
Muxing mode : zlib
Codec ID : S_HDMV/PGS
Codec ID/Info : Picture based subtitle format used on BDs/HD-DVDs
Duration : 2 h 20 min
Bit rate : 32.2 kb/s
Count of elements : 2318
Stream size : 32.2 MiB (0%)
Title : Cantonese
Language : Chinese
Default : No
Forced : No

Text #5
ID : 9
Format : PGS
Muxing mode : zlib
Codec ID : S_HDMV/PGS
Codec ID/Info : Picture based subtitle format used on BDs/HD-DVDs
Duration : 2 h 19 min
Bit rate : 37.5 kb/s
Count of elements : 2420
Stream size : 37.5 MiB (0%)
Title : Mandarin Traditional
Language : Chinese
Default : No
Forced : No

Text #6
ID : 10
Format : PGS
Muxing mode : zlib
Codec ID : S_HDMV/PGS
Codec ID/Info : Picture based subtitle format used on BDs/HD-DVDs
Duration : 2 h 19 min
Bit rate : 35.6 kb/s
Count of elements : 2252
Stream size : 35.6 MiB (0%)
Language : Croatian
Default : No
Forced : No

Text #7
ID : 11
Format : PGS
Muxing mode : zlib
Codec ID : S_HDMV/PGS
Codec ID/Info : Picture based subtitle format used on BDs/HD-DVDs
Duration : 2 h 20 min
Bit rate : 33.8 kb/s
Count of elements : 2172
Stream size : 33.8 MiB (0%)
Language : Czech
Default : No
Forced : No

Text #8
ID : 12
Format : PGS
Muxing mode : zlib
Codec ID : S_HDMV/PGS
Codec ID/Info : Picture based subtitle format used on BDs/HD-DVDs
Duration : 2 h 20 min
Bit rate : 33.0 kb/s
Count of elements : 2192
Stream size : 33.0 MiB (0%)
Language : Danish
Default : No
Forced : No

Text #9
ID : 13
Format : PGS
Muxing mode : zlib
Codec ID : S_HDMV/PGS
Codec ID/Info : Picture based subtitle format used on BDs/HD-DVDs
Duration : 2 h 19 min
Bit rate : 30.6 kb/s
Count of elements : 2092
Stream size : 30.6 MiB (0%)
Language : Dutch
Default : No
Forced : No

Text #10
ID : 14
Format : PGS
Muxing mode : zlib
Codec ID : S_HDMV/PGS
Codec ID/Info : Picture based subtitle format used on BDs/HD-DVDs
Duration : 2 h 19 min
Bit rate : 36.2 kb/s
Count of elements : 2212
Stream size : 36.2 MiB (0%)
Language : Estonian
Default : No
Forced : No

Text #11
ID : 15
Format : PGS
Muxing mode : zlib
Codec ID : S_HDMV/PGS
Codec ID/Info : Picture based subtitle format used on BDs/HD-DVDs
Duration : 2 h 20 min
Bit rate : 28.3 kb/s
Count of elements : 2174
Stream size : 28.3 MiB (0%)
Language : Finnish
Default : No
Forced : No

Text #12
ID : 16
Format : PGS
Muxing mode : zlib
Codec ID : S_HDMV/PGS
Codec ID/Info : Picture based subtitle format used on BDs/HD-DVDs
Duration : 2 h 20 min
Bit rate : 31.7 kb/s
Count of elements : 2150
Stream size : 31.8 MiB (0%)
Language : French
Default : No
Forced : No

Text #13
ID : 17
Format : PGS
Muxing mode : zlib
Codec ID : S_HDMV/PGS
Codec ID/Info : Picture based subtitle format used on BDs/HD-DVDs
Duration : 2 h 20 min
Bit rate : 35.2 kb/s
Count of elements : 2232
Stream size : 35.2 MiB (0%)
Language : Italian
Default : No
Forced : No

Text #14
ID : 18
Format : PGS
Muxing mode : zlib
Codec ID : S_HDMV/PGS
Codec ID/Info : Picture based subtitle format used on BDs/HD-DVDs
Duration : 2 h 10 min
Bit rate : 18.1 kb/s
Count of elements : 2316
Stream size : 16.9 MiB (0%)
Language : Japanese
Default : No
Forced : No

Text #15
ID : 19
Format : PGS
Muxing mode : zlib
Codec ID : S_HDMV/PGS
Codec ID/Info : Picture based subtitle format used on BDs/HD-DVDs
Duration : 2 h 19 min
Bit rate : 25.0 kb/s
Count of elements : 2382
Stream size : 24.9 MiB (0%)
Language : Korean
Default : No
Forced : No

Text #16
ID : 20
Format : PGS
Muxing mode : zlib
Codec ID : S_HDMV/PGS
Codec ID/Info : Picture based subtitle format used on BDs/HD-DVDs
Duration : 2 h 19 min
Bit rate : 32.5 kb/s
Count of elements : 2194
Stream size : 32.4 MiB (0%)
Language : Latvian
Default : No
Forced : No

Text #17
ID : 21
Format : PGS
Muxing mode : zlib
Codec ID : S_HDMV/PGS
Codec ID/Info : Picture based subtitle format used on BDs/HD-DVDs
Duration : 2 h 19 min
Bit rate : 33.8 kb/s
Count of elements : 2212
Stream size : 33.7 MiB (0%)
Language : Lithuanian
Default : No
Forced : No

Text #18
ID : 22
Format : PGS
Muxing mode : zlib
Codec ID : S_HDMV/PGS
Codec ID/Info : Picture based subtitle format used on BDs/HD-DVDs
Duration : 2 h 20 min
Bit rate : 31.1 kb/s
Count of elements : 2230
Stream size : 31.2 MiB (0%)
Language : Norwegian
Default : No
Forced : No

Text #19
ID : 23
Format : PGS
Muxing mode : zlib
Codec ID : S_HDMV/PGS
Codec ID/Info : Picture based subtitle format used on BDs/HD-DVDs
Duration : 2 h 20 min
Bit rate : 33.2 kb/s
Count of elements : 2192
Stream size : 33.3 MiB (0%)
Title : Brazilian
Language : Portuguese
Default : No
Forced : No

Text #20
ID : 24
Format : PGS
Muxing mode : zlib
Codec ID : S_HDMV/PGS
Codec ID/Info : Picture based subtitle format used on BDs/HD-DVDs
Duration : 2 h 19 min
Bit rate : 36.4 kb/s
Count of elements : 2218
Stream size : 36.3 MiB (0%)
Language : Romanian
Default : No
Forced : No

Text #21
ID : 25
Format : PGS
Muxing mode : zlib
Codec ID : S_HDMV/PGS
Codec ID/Info : Picture based subtitle format used on BDs/HD-DVDs
Duration : 2 h 20 min
Bit rate : 35.1 kb/s
Count of elements : 2188
Stream size : 35.2 MiB (0%)
Language : Russian
Default : No
Forced : No

Text #22
ID : 26
Format : PGS
Muxing mode : zlib
Codec ID : S_HDMV/PGS
Codec ID/Info : Picture based subtitle format used on BDs/HD-DVDs
Duration : 2 h 19 min
Bit rate : 32.0 kb/s
Count of elements : 2206
Stream size : 32.0 MiB (0%)
Language : Slovenian
Default : No
Forced : No

Text #23
ID : 27
Format : PGS
Muxing mode : zlib
Codec ID : S_HDMV/PGS
Codec ID/Info : Picture based subtitle format used on BDs/HD-DVDs
Duration : 2 h 20 min
Bit rate : 34.3 kb/s
Count of elements : 2278
Stream size : 34.3 MiB (0%)
Title : Latin American
Language : Spanish
Default : No
Forced : No

Text #24
ID : 28
Format : PGS
Muxing mode : zlib
Codec ID : S_HDMV/PGS
Codec ID/Info : Picture based subtitle format used on BDs/HD-DVDs
Duration : 2 h 20 min
Bit rate : 31.3 kb/s
Count of elements : 2110
Stream size : 31.4 MiB (0%)
Language : Swedish
Default : No
Forced : No

Text #25
ID : 29
Format : PGS
Muxing mode : zlib
Codec ID : S_HDMV/PGS
Codec ID/Info : Picture based subtitle format used on BDs/HD-DVDs
Duration : 2 h 20 min
Bit rate : 30.1 kb/s
Count of elements : 2374
Stream size : 30.2 MiB (0%)
Language : Thai
Default : No
Forced : No

Text #26
ID : 30
Format : PGS
Muxing mode : zlib
Codec ID : S_HDMV/PGS
Codec ID/Info : Picture based subtitle format used on BDs/HD-DVDs
Duration : 2 h 20 min
Bit rate : 35.0 kb/s
Count of elements : 2230
Stream size : 35.0 MiB (0%)
Language : Turkish
Default : No
Forced : No

Menu
00:00:00.000 : en:Opening Logos
00:00:23.523 : en:Revenge of the Sith
00:01:50.068 : en:Battle Over Coruscant
00:08:28.133 : en:General Grievous
00:11:23.349 : en:Rescuing the Chancellor
00:18:33.738 : en:Confronting Grievous
00:23:40.461 : en:Happy Reunions
00:27:37.698 : en:Grievous on Utapau
00:29:12.960 : en:Bad Dreams
00:33:18.914 : en:Counsel with Yoda
00:35:45.435 : en:The Chancellor\'s Request
00:36:47.997 : en:On the Jedi Council
00:38:21.466 : en:Secret Assignment
00:40:17.457 : en:Not the Chosen One?
00:41:18.601 : en:Seeds of Distrust
00:42:41.058 : en:Tragedy of Darth Plagueis
00:48:01.587 : en:Kashyyyk
00:50:20.517 : en:Brothers\' Farewell
00:52:24.933 : en:A Hero Lost
00:53:58.026 : en:Arrival on Utapau
00:56:26.466 : en:Obi-Wan vs. Grievous
01:00:56.278 : en:Jedi War Council
01:01:56.546 : en:Sidious Revealed
01:05:26.047 : en:Utapau Chase
01:07:40.598 : en:Mace Learns the Truth
01:09:06.976 : en:Anakin\'s Fatal Decision
01:10:52.999 : en:Mace vs. Sidious
01:15:19.223 : en:Rise Lord Vader
01:19:15.250 : en:March on the Jedi Temple
01:20:37.458 : en:Order Sixty-Six
01:24:20.597 : en:Time to Leave
01:27:56.521 : en:\"Wait for Me\"
01:29:57.392 : en:The Heroes Regroup
01:33:40.406 : en:Birth of the Empire
01:36:39.460 : en:The Terrible Truth
01:38:35.535 : en:Obi-Wan Confronts Padm�
01:41:24.370 : en:Padm�\'s Departure
01:42:57.004 : en:\"You\'re Breaking My Heart\"
01:48:18.784 : en:Yoda Visits the Emperor
01:50:59.444 : en:Battle of the Heroes
01:52:44.007 : en:Yoda vs. Sidious
01:54:22.856 : en:Narrow Escapes
01:56:54.925 : en:Immolation
02:02:20.875 : en:The Emperor Arrives
02:03:32.864 : en:Secret Delivery
02:05:19.637 : en:Birth and Rebirth
02:07:37.108 : en:Darth Vader Awakes
02:08:57.063 : en:The Future of the Twins
02:12:04.959 : en:A New Hope
02:13:47.353 : en:End Credits

悠悠MP4_MP4电影下载_星球大战前传3:西斯的复仇/星战前传之西斯的复仇 Star.Wars.Episode.III.Revenge.Of.The.Sith.2005.2160p.DS悠悠MP4_MP4电影下载_星球大战前传3:西斯的复仇/星战前传之西斯的复仇 Star.Wars.Episode.III.Revenge.Of.The.Sith.2005.2160p.DS悠悠MP4_MP4电影下载_星球大战前传3:西斯的复仇/星战前传之西斯的复仇 Star.Wars.Episode.III.Revenge.Of.The.Sith.2005.2160p.DS


提示:如迅雷下载提示"任务出错"、"因版权无法下载",请尝试【迅雷5】
上传的附件:
最新回复 (0)
返回
本站所有资源均收集自互联网,没有提供影片资源存储, 也未参与录制、上传,若本站收录的资源无意侵犯了您的权益, 请联系邮箱:gogoimgs#gmail.com(#=@)