[更早] [欧美] [犯罪] [纯净版] [度盘/BT][汉尼拔 / 沉默的羔羊2][BD-MP4/ 2.78GB][英语双字][1080p][H265][10bit][AAC 5.1]

uump4 10天前 324

悠悠MP4_MP4电影下载_[度盘/BT][汉尼拔 / 沉默的羔羊2][BD-MP4/ 2.78GB][英语双字][1080p][H265][10bit][AAC 5.1]

导演雷德利·斯科特
编剧大卫·马梅 / 斯蒂文·泽里安 / Thomas Harris
主演安东尼·霍普金斯 / 朱丽安·摩尔 / 加里·奥德曼 / 雷·利奥塔 / 吉安卡罗·吉安尼尼
类型: 惊悚 / 犯罪
官方网站: www.hannibalmovie.com/
制片国家/地区: 英国 / 美国
语言: 英语 / 意大利语 / 日语
上映日期: 2001-02-09(美国) / 2001-02-16(英国)
片长: 131 分钟
又名: 人魔 / 沉默的杀机 / 沉默的羔羊2 / 汉尼拔尔
IMDb链接: tt0212985

IMDB评分:6.8

豆瓣评分:8.2

汉尼拔的剧情简介 · · · · · ·

  本片是《沉默的羔羊》十周年纪念日推出的续集,这一集故事仍然改编自作家托马斯哈里斯的小说。 
  从高度戒备的医院逃脱的汉尼拔(安东尼·霍普金斯 Anthony Hopkins 饰)恶习难改,继续寻找他的“猎物”,不料成了曾在自己刀下侥幸活命的梅森(加里·奥德曼 Gary Ol dman 饰)的猎杀对象。梅森是一个罪大恶极的恋童癖,曾经强暴过自己的亲妹妹,年轻的时候逃狱,并且接受过人魔汉尼拔·莱克特的心理治疗,但汉尼拔·莱克特却害他半身瘫痪并且严重毁容,现在必须靠人工呼吸器维生。但是他拥有庞大的财产,并且不断收集各种不同的儿童,希望能把汉尼拔引出来,进行恐怖的报复行动。无奈之下汉尼拔求助于克莱丽斯探员(朱丽安·摩尔 Julianne Moore 饰)。两大恶魔对决,到底谁胜谁败?

悠悠MP4_MP4电影下载_[度盘/BT][汉尼拔 / 沉默的羔羊2][BD-MP4/ 2.78GB][英语双字][1080p][H265][10bit][AAC 5.1]

悠悠MP4_MP4电影下载_[度盘/BT][汉尼拔 / 沉默的羔羊2][BD-MP4/ 2.78GB][英语双字][1080p][H265][10bit][AAC 5.1]

悠悠MP4_MP4电影下载_[度盘/BT][汉尼拔 / 沉默的羔羊2][BD-MP4/ 2.78GB][英语双字][1080p][H265][10bit][AAC 5.1]

悠悠MP4_MP4电影下载_[度盘/BT][汉尼拔 / 沉默的羔羊2][BD-MP4/ 2.78GB][英语双字][1080p][H265][10bit][AAC 5.1]

悠悠MP4_MP4电影下载_[度盘/BT][汉尼拔 / 沉默的羔羊2][BD-MP4/ 2.78GB][英语双字][1080p][H265][10bit][AAC 5.1]

悠悠MP4_MP4电影下载_[度盘/BT][汉尼拔 / 沉默的羔羊2][BD-MP4/ 2.78GB][英语双字][1080p][H265][10bit][AAC 5.1]

悠悠MP4_MP4电影下载_[度盘/BT][汉尼拔 / 沉默的羔羊2][BD-MP4/ 2.78GB][英语双字][1080p][H265][10bit][AAC 5.1]

悠悠MP4_MP4电影下载_[度盘/BT][汉尼拔 / 沉默的羔羊2][BD-MP4/ 2.78GB][英语双字][1080p][H265][10bit][AAC 5.1]

悠悠MP4_MP4电影下载_[度盘/BT][汉尼拔 / 沉默的羔羊2][BD-MP4/ 2.78GB][英语双字][1080p][H265][10bit][AAC 5.1]

悠悠MP4_MP4电影下载_[度盘/BT][汉尼拔 / 沉默的羔羊2][BD-MP4/ 2.78GB][英语双字][1080p][H265][10bit][AAC 5.1]

悠悠MP4_MP4电影下载_[度盘/BT][汉尼拔 / 沉默的羔羊2][BD-MP4/ 2.78GB][英语双字][1080p][H265][10bit][AAC 5.1]

悠悠MP4_MP4电影下载_[度盘/BT][汉尼拔 / 沉默的羔羊2][BD-MP4/ 2.78GB][英语双字][1080p][H265][10bit][AAC 5.1]

悠悠MP4_MP4电影下载_[度盘/BT][汉尼拔 / 沉默的羔羊2][BD-MP4/ 2.78GB][英语双字][1080p][H265][10bit][AAC 5.1]

悠悠MP4_MP4电影下载_[度盘/BT][汉尼拔 / 沉默的羔羊2][BD-MP4/ 2.78GB][英语双字][1080p][H265][10bit][AAC 5.1]

General

Complete name               : C:\Users\Administrator\Desktop\Hannibal.2001.REMASTERED.BD1080p.x265.10bit.HEVC.ACC.英语双字-AWKN.mp4

Format                      : MPEG-4

Format profile              : Base Media

Codec ID                    : iso4 (iso4/hvc1/iso6)

File size                   : 2.78 GiB

Duration                    : 2 h 11 min

Overall bit rate mode       : Variable

Overall bit rate            : 3 027 kb/s

Encoded date                : UTC 2019-12-03 04:25:28

Tagged date                 : UTC 2019-12-03 04:25:28


Video

ID                          : 1

Format                      : HEVC

Format/Info                 : High Efficiency Video Coding

Format profile              : Main [email protected]@Main

Codec ID                    : hvc1

Codec ID/Info               : High Efficiency Video Coding

Duration                    : 2 h 11 min

Bit rate                    : 2 800 kb/s

Maximum bit rate            : 13.1 Mb/s

Width                       : 1 920 pixels

Height                      : 1 040 pixels

Display aspect ratio        : 1.85:1

Frame rate mode             : Constant

Frame rate                  : 23.976 (24000/1001) FPS

Color space                 : YUV

Chroma subsampling          : 4:2:0

Bit depth                   : 10 bits

Bits/(Pixel*Frame)          : 0.058

Stream size                 : 2.57 GiB (93%)

Writing library             : x265 2.9169e76b6bbcc:[Windows][GCC 8.2.0][64 bit] 10bit

Encoding settings           : cpuid=1049583 / frame-threads=4 / numa-pools=20 / wpp / no-pmode / no-pme / no-psnr / no-ssim / log-level=2 / input-csp=1 / input-res=1920x1040 / interlace=0 / total-frames=189270 / level-idc=0 / high-tier=1 / uhd-bd=0 / ref=4 / no-allow-non-conformance / no-repeat-headers / annexb / no-aud / no-hrd / info / hash=0 / no-temporal-layers / open-gop / min-keyint=23 / keyint=250 / gop-lookahead=0 / bframes=4 / b-adapt=2 / b-pyramid / bframe-bias=0 / rc-lookahead=25 / lookahead-slices=4 / scenecut=40 / radl=0 / no-intra-refresh / ctu=64 / min-cu-size=8 / rect / no-amp / max-tu-size=32 / tu-inter-depth=1 / tu-intra-depth=1 / limit-tu=0 / rdoq-level=2 / dynamic-rd=0.00 / no-ssim-rd / signhide / no-tskip / nr-intra=0 / nr-inter=0 / no-constrained-intra / strong-intra-smoothing / max-merge=3 / limit-refs=3 / limit-modes / me=3 / subme=3 / merange=57 / temporal-mvp / weightp / no-weightb / no-analyze-src-pics / deblock=0:0 / sao / no-sao-non-deblock / rd=4 / no-early-skip / rskip / no-fast-intra / no-tskip-fast / no-cu-lossless / no-b-intra / no-splitrd-skip / rdpenalty=0 / psy-rd=2.00 / psy-rdoq=1.00 / no-rd-refine / no-lossless / cbqpoffs=0 / crqpoffs=0 / rc=abr / bitrate=2800 / qcomp=0.60 / qpstep=4 / stats-write=0 / stats-read=2 / cplxblur=20.0 / qblur=0.5 / ipratio=1.40 / pbratio=1.30 / aq-mode=1 / aq-strength=1.00 / cutree / zone-count=0 / no-strict-cbr / qg-size=32 / no-rc-grain / qpmax=69 / qpmin=0 / no-const-vbv / sar=1 / overscan=0 / videoformat=5 / range=0 / colorprim=2 / transfer=2 / colormatrix=2 / chromaloc=0 / display-window=0 / max-cll=0,0 / min-luma=0 / max-luma=1023 / log2-max-poc-lsb=8 / vui-timing-info / vui-hrd-info / slices=1 / no-opt-qp-pps / no-opt-ref-list-length-pps / no-multi-pass-opt-rps / scenecut-bias=0.05 / no-opt-cu-delta-qp / no-aq-motion / no-hdr / no-hdr-opt / no-dhdr10-opt / no-idr-recovery-sei / analysis-reuse-level=5 / scale-factor=0 / refine-intra=0 / refine-inter=0 / refine-mv=0 / no-limit-sao / ctu-info=0 / no-lowpass-dct / refine-mv-type=0 / copy-pic=1 / max-ausize-factor=1.0 / no-dynamic-refine / no-single-sei

Encoded date                : UTC 2019-12-03 04:25:28

Tagged date                 : UTC 2019-12-03 04:26:20

Codec configuration box     : hvcC


Audio

ID                          : 2

Format                      : AAC LC

Format/Info                 : Advanced Audio Codec Low Complexity

Codec ID                    : mp4a-40-2

Duration                    : 2 h 11 min

Bit rate mode               : Variable

Bit rate                    : 223 kb/s

Maximum bit rate            : 361 kb/s

Channel(s)                  : 6 channels

Channel layout              : C L R Ls Rs LFE

Sampling rate               : 48.0 kHz

Frame rate                  : 46.875 FPS (1024 SPF)

Compression mode            : Lossy

Stream size                 : 210 MiB (7%)

Language                    : English

Encoded date                : UTC 2019-12-03 04:00:40

Tagged date                 : UTC 2019-12-03 04:26:20



https://pan.baidu.com/s/11DU3ZnFI9iQ52Y6qaM1SpA 提取码:eq3h 


提示:如迅雷下载提示"任务出错"、"因版权无法下载",请尝试【迅雷5】
上传的附件:
最新回复 (0)
返回
本站所有资源均收集自互联网,没有提供影片资源存储, 也未参与录制、上传,若本站收录的资源无意侵犯了您的权益, 请联系邮箱:gogoimgs#gmail.com(#=@)