[2018] [欧美] [剧情] [BD-720P] 孩童杰克/一个杰克这样的孩子 A.Kid.Like.Jake.2018.720p.BluRay.x264-ViRGO 4.38GB

uump4 10天前 56

帖子完整标题:孩童杰克/一个杰克这样的孩子 A.Kid.Like.Jake.2018.720p.BluRay.x264-ViRGO 4.38GB


悠悠MP4_MP4电影下载_孩童杰克/一个杰克这样的孩子 A.Kid.Like.Jake.2018.720p.BluRay.x264-ViRGO 4.38GB

◎译  名 孩童杰克 / 一个杰克这样的孩子
◎片  名 A Kid Like Jake
◎年  代 2018
◎产  地 美国
◎类  别 剧情 / 家庭
◎语  言 英语
◎上映日期 2018-01-23(圣丹斯电影节) / 2018-06-01(美国)
◎IMDb评分 5.3/10 from 2232 users
◎IMDb链接 https://www.imdb.com/title/tt6884200
◎豆瓣评分 6.4/10 from 652 users
◎豆瓣链接 https://movie.douban.com/subject/26983452/
◎片  长 92分钟
◎导  演 Silas Howard
◎编  剧 丹尼尔·珀尔 Daniel Pearle
◎主  演 克莱尔·丹妮丝 Claire Danes
      佩丽冉卡·曹帕拉 Priyanka Chopra
      奥克塔维亚·斯宾瑟 Octavia Spencer
      吉姆·帕森斯 Jim Parsons
      香奈特·芮妮·威尔逊 Shaunette Renée Wilson
      艾米·兰德克 Amy Landecker
      安·唐德 Ann Dowd
      阿西夫·曼德维 Aasif Mandvi
      Julia Taylor Ross
      张欣迪 Cindy Cheung
      Kelly Deadmon
      奥利维亚·邦德 Olivia Bond


◎标  签 家庭 | 美国 | 剧情 | 温情 | 纽约 | 独立 | 教育 | 圣丹斯电影节

◎简  介

  Alex和Greg对他们年仅四岁却偏爱公主和童话故事的儿子杰克有着很高的期望。当他们发现自己无法承担纽约市私立学校的高昂学费时,杰克的幼儿园老师Judy建议他们利用杰克的心理问题去赢取奖学金。面对来自社会、学校、家庭、教育的令人哭笑不得的多重压力,他们能够接受儿子杰克最本真的自我吗?
Video
ID : 1
Format : AVC
Format/Info : Advanced Video Codec
Format profile : [email protected]
Format settings : CABAC / 5 Ref Frames
Format settings, CABAC : Yes
Format settings, Reference frames : 5 frames
Codec ID : V_MPEG4/ISO/AVC
Duration : 1 h 29 min
Bit rate : 5 493 kb/s
Width : 1 280 pixels
Height : 696 pixels
Display aspect ratio : 1.85:1
Frame rate mode : Constant
Frame rate : 23.976 (24000/1001) FPS
Color space : YUV
Chroma subsampling : 4:2:0
Bit depth : 8 bits
Scan type : Progressive
Bits/(Pixel*Frame) : 0.257
Stream size : 3.43 GiB (78%)
Writing library : x264 core 157 r2970 5493be8
Encoding settings : cabac=1 / ref=5 / deblock=1:0:0 / analyse=0x3:0x113 / me=umh / subme=7 / psy=1 / psy_rd=1.00:0.00 / mixed_ref=1 / me_range=16 / chroma_me=1 / trellis=1 / 8x8dct=1 / cqm=0 / deadzone=21,11 / fast_pskip=0 / chroma_qp_offset=-2 / threads=12 / lookahead_threads=2 / sliced_threads=0 / nr=0 / decimate=1 / interlaced=0 / bluray_compat=0 / constrained_intra=0 / bframes=3 / b_pyramid=2 / b_adapt=1 / b_bias=0 / direct=3 / weightb=1 / open_gop=0 / weightp=2 / keyint=240 / keyint_min=23 / scenecut=40 / intra_refresh=0 / rc_lookahead=50 / rc=2pass / mbtree=1 / bitrate=5493 / ratetol=1.0 / qcomp=0.60 / qpmin=0 / qpmax=69 / qpstep=4 / cplxblur=20.0 / qblur=0.5 / ip_ratio=1.40 / aq=1:1.00
Language : English
Default : Yes
Forced : No

Audio
ID : 2
Format : DTS
Format/Info : Digital Theater Systems
Codec ID : A_DTS
Duration : 1 h 29 min
Bit rate mode : Constant
Bit rate : 1 509 kb/s
Channel(s) : 6 channels
Channel layout : C L R Ls Rs LFE
Sampling rate : 48.0 kHz
Frame rate : 93.750 FPS (512 SPF)
Bit depth : 24 bits
Compression mode : Lossy
Stream size : 964 MiB (22%)
Language : English
Default : Yes
Forced : No

Text
ID : 3
Format : UTF-8
Codec ID : S_TEXT/UTF8
Codec ID/Info : UTF-8 Plain Text
Duration : 1 h 27 min
Bit rate : 76 b/s
Count of elements : 1766
Stream size : 48.9 KiB (0%)
Language : English
Default : No
Forced : No

Menu
00:00:00.000 : en:
00:07:51.053 : en:
00:14:34.957 : en:
00:21:24.157 : en:
00:27:28.480 : en:
00:34:16.971 : en:
00:43:11.880 : en:
00:52:58.758 : en:
01:02:55.313 : en:
01:12:09.325 : en:
01:18:33.792 : en:
01:22:49.047 : en:
01:29:15.350 : en:

悠悠MP4_MP4电影下载_孩童杰克/一个杰克这样的孩子 A.Kid.Like.Jake.2018.720p.BluRay.x264-ViRGO 4.38GB


提示:如迅雷下载提示"任务出错"、"因版权无法下载",请尝试【迅雷5】
上传的附件:
最新回复 (0)
返回
本站所有资源均收集自互联网,没有提供影片资源存储, 也未参与录制、上传,若本站收录的资源无意侵犯了您的权益, 请联系邮箱:gogoimgs#gmail.com(#=@)