[2018] [欧美] [其他] [WEB-1080P] 阿涅利/吉亚尼·阿涅利 Agnelli.2017.1080p.WEBRip.x264-RARBG 1.98GB

uump4 4天前 67

帖子完整标题:阿涅利/吉亚尼·阿涅利 Agnelli.2017.1080p.WEBRip.x264-RARBG 1.98GB


悠悠MP4_MP4电影下载_阿涅利/吉亚尼·阿涅利 Agnelli.2017.1080p.WEBRip.x264-RARBG 1.98GB

◎译  名 阿涅利 / 吉亚尼·阿涅利 / 阿格奈利
◎片  名 Agnelli
◎年  代 2018
◎产  地 美国
◎类  别 纪录片
◎语  言 英语 / 意大利语
◎上映日期 2017-09-03(意大利)
◎IMDb评分  7.5/10 from 476 users
◎IMDb链接  https://www.imdb.com/title/tt6798422
◎豆瓣评分 0/10 from 0 users
◎豆瓣链接 https://movie.douban.com/subject/27037982/
◎片  长 110分钟
◎导  演 Nick Hooker
◎主  演 Edoardo Agnelli
       Giovanni Agnelli
       Marella Agnelli
       Maria Sole Agnelli
       恩里科·贝林格 Enrico Berlinguer
       Bruno Bischofberger


◎标  签 纪录片 | 美国 | 紀錄片 | 传记 | HBO | 记录片/传记电影 | 欧洲 | 人生

◎简  介  

  影片讲述了一个意大利传奇实业家和花花公子吉阿尼·阿涅利的故事,由他的家人、情人、心腹朋友和竞争对手所讲述。@快影盒子

Video
ID                                       : 1
Format                                   : AVC
Format/Info                              : Advanced Video Codec
Format profile                           : [email protected]
Format settings                          : CABAC / 4 Ref Frames
Format settings, CABAC                   : Yes
Format settings, Reference frames        : 4 frames
Codec ID                                 : avc1
Codec ID/Info                            : Advanced Video Coding
Duration                                 : 1 h 43 min
Bit rate                                 : 2 500 kb/s
Width                                    : 1 920 pixels
Height                                   : 1 080 pixels
Display aspect ratio                     : 16:9
Frame rate mode                          : Constant
Frame rate                               : 23.976 (23976/1000) FPS
Color space                              : YUV
Chroma subsampling                       : 4:2:0
Bit depth                                : 8 bits
Scan type                                : Progressive
Bits/(Pixel*Frame)                       : 0.050
Stream size                              : 1.81 GiB (92%)
Writing library                          : x264 core 152 r2851M ba24899
Encoding settings                        : cabac=1 / ref=4 / deblock=1:-1:-1 / analyse=0x3:0x113 / me=umh / subme=9 / psy=1 / psy_rd=1.00:0.15 / mixed_ref=1 / me_range=24 / chroma_me=1 / trellis=2 / 8x8dct=1 / cqm=0 / deadzone=21,11 / fast_pskip=1 / chroma_qp_offset=-3 / threads=16 / lookahead_threads=4 / sliced_threads=0 / nr=0 / decimate=1 / interlaced=0 / bluray_compat=0 / constrained_intra=0 / bframes=3 / b_pyramid=2 / b_adapt=2 / b_bias=0 / direct=3 / weightb=1 / open_gop=0 / weightp=2 / keyint=250 / keyint_min=25 / scenecut=40 / intra_refresh=0 / rc_lookahead=50 / rc=2pass / mbtree=1 / bitrate=2500 / ratetol=1.0 / qcomp=0.60 / qpmin=0 / qpmax=69 / qpstep=4 / cplxblur=20.0 / qblur=0.5 / vbv_maxrate=31250 / vbv_bufsize=31250 / nal_hrd=none / filler=0 / ip_ratio=1.40 / aq=3:1.00
Encoded date                             : UTC 2019-12-02 14:45:27
Tagged date                              : UTC 2019-12-02 14:45:27
Codec configuration box                  : avcC

Audio
ID                                       : 2
Format                                   : AAC LC
Format/Info                              : Advanced Audio Codec Low Complexity
Codec ID                                 : mp4a-40-2
Duration                                 : 1 h 43 min
Bit rate mode                            : Constant
Bit rate                                 : 224 kb/s
Channel(s)                               : 6 channels
Channel layout                           : C L R Ls Rs LFE
Sampling rate                            : 48.0 kHz
Frame rate                               : 46.875 FPS (1024 SPF)
Compression mode                         : Lossy
Stream size                              : 166 MiB (8%)
Language                                 : English
Default                                  : Yes
Alternate group                          : 1
Encoded date                             : UTC 2019-12-02 14:45:27
Tagged date                              : UTC 2019-12-02 14:45:27


悠悠MP4_MP4电影下载_阿涅利/吉亚尼·阿涅利 Agnelli.2017.1080p.WEBRip.x264-RARBG 1.98GB悠悠MP4_MP4电影下载_阿涅利/吉亚尼·阿涅利 Agnelli.2017.1080p.WEBRip.x264-RARBG 1.98GB悠悠MP4_MP4电影下载_阿涅利/吉亚尼·阿涅利 Agnelli.2017.1080p.WEBRip.x264-RARBG 1.98GB


提示:如迅雷下载提示"任务出错"、"因版权无法下载",请尝试【迅雷5】
上传的附件:
最新回复 (0)
返回
本站所有资源均收集自互联网,没有提供影片资源存储, 也未参与录制、上传,若本站收录的资源无意侵犯了您的权益, 请联系邮箱:gogoimgs#gmail.com(#=@)