[2006] [其他] [剧情] [WEB-1080P] 朗福勋爵/朗福镇 Longford.2006.1080p.AMZN.WEBRip.DDP2.0.x264-alfaHD 9.53GB

uump4 10天前 35

帖子完整标题:朗福勋爵/朗福镇 Longford.2006.1080p.AMZN.WEBRip.DDP2.0.x264-alfaHD 9.53GB


悠悠MP4_MP4电影下载_朗福勋爵/朗福镇 Longford.2006.1080p.AMZN.WEBRip.DDP2.0.x264-alfaHD 9.53GB

◎译  名 朗福勋爵 / 朗福镇
◎片  名 Longford
◎年  代 2006
◎产  地 英国 / 美国
◎类  别 剧情 / 传记 / 犯罪
◎语  言 英语
◎上映日期 2006-10-26(英国)
◎IMDb评分  7.6/10 from 2621 users
◎IMDb链接  https://www.imdb.com/title/tt0759612
◎豆瓣评分 8.0/10 from 483 users
◎豆瓣链接 https://movie.douban.com/subject/2046579/
◎片  长 93分钟
◎导  演 汤姆·霍珀 Tom Hooper
◎编  剧 皮特·摩根 Peter Morgan
◎主  演 李·博德曼 Lee Boardman
       吉姆·布劳德本特 Jim Broadbent
       琳赛·邓肯 Lindsay Duncan
       萨曼莎·莫顿 Samantha Morton
       亚力克斯·布莱克 Alex Blake
       安迪·瑟金斯 Andy Serkis


◎标  签 英国 | 犯罪 | 人性 | 英国电影 | 剧情 | 2006 | 拯救 | HBO

◎简  介  

  和蔼善良的弗兰克·朗福勋爵(Jim Broadbent 饰)是英国政府上议院的领袖,同时也是探监慈善基金的积极倡导者。在他的帮助下,无数罪行累累的犯人幡然醒悟,痛改前非,迎来了崭新的人生。就在1965年,一连串令人发指的凶杀案震惊全英。年轻男子伊恩·布莱迪(Andy Serkis 饰)和女友迈拉·欣德丽(Samantha Morton 饰)残忍杀害了数名儿童,其手段之恶毒令人不忍卒睹。二人落网伏法后,分别被判处无期徒刑。此后不久,欣德丽邀请朗福勋爵探监,希望得到帮助。在多次书信和当面交流后,朗福相信欣德丽已真心悔过。虽然面临着来自政府和民众舆论的压力,但他仍决定赌上自己的名誉去为欣德丽争取假释的机会……
  本片根据真实事件改编,并荣获2008年金球奖最佳迷你电视剧集、最佳男主角(Jim Broadbent)和最佳女主角奖(Samantha Morton)。

◎获奖情况  

  第65届金球奖(2008)
  电视类 最佳迷你剧/电视电影
  电视类 迷你剧/电视电影最佳男主角 吉姆·布劳德本特
  电视类 最佳男配角(提名) 安迪·瑟金斯
  电视类 最佳女配角 萨曼莎·莫顿

  第8届美国电影学会奖(2007)
  年度佳剧

Video
ID                                       : 1
Format                                   : AVC
Format/Info                              : Advanced Video Codec
Format profile                           : [email protected]
Format settings                          : CABAC / 4 Ref Frames
Format settings, CABAC                   : Yes
Format settings, Reference frames        : 4 frames
Codec ID                                 : V_MPEG4/ISO/AVC
Duration                                 : 1 h 32 min
Bit rate mode                            : Variable
Bit rate                                 : 14.5 Mb/s
Maximum bit rate                         : 15.0 Mb/s
Width                                    : 1 920 pixels
Height                                   : 1 080 pixels
Display aspect ratio                     : 16:9
Frame rate mode                          : Constant
Frame rate                               : 29.970 (30000/1001) FPS
Color space                              : YUV
Chroma subsampling                       : 4:2:0
Bit depth                                : 8 bits
Scan type                                : Progressive
Bits/(Pixel*Frame)                       : 0.233
Stream size                              : 9.39 GiB (98%)
Default                                  : Yes
Forced                                   : No
Color range                              : Limited
Color primaries                          : BT.709
Transfer characteristics                 : BT.709
Matrix coefficients                      : BT.709

Audio
ID                                       : 2
Format                                   : E-AC-3
Format/Info                              : Enhanced AC-3
Commercial name                          : Dolby Digital Plus
Codec ID                                 : A_EAC3
Duration                                 : 1 h 32 min
Bit rate mode                            : Constant
Bit rate                                 : 224 kb/s
Channel(s)                               : 2 channels
Channel layout                           : L R
Sampling rate                            : 48.0 kHz
Frame rate                               : 31.250 FPS (1536 SPF)
Compression mode                         : Lossy
Stream size                              : 149 MiB (2%)
Language                                 : English
Service kind                             : Complete Main
Default                                  : Yes
Forced                                   : No

Text #1
ID                                       : 3
Format                                   : UTF-8
Codec ID                                 : S_TEXT/UTF8
Codec ID/Info                            : UTF-8 Plain Text
Duration                                 : 1 h 31 min
Bit rate                                 : 72 b/s
Count of elements                        : 1404
Stream size                              : 48.6 KiB (0%)
Language                                 : English
Default                                  : No
Forced                                   : No

Text #2
ID                                       : 4
Format                                   : UTF-8
Codec ID                                 : S_TEXT/UTF8
Codec ID/Info                            : UTF-8 Plain Text
Duration                                 : 1 h 31 min
Bit rate                                 : 75 b/s
Count of elements                        : 1452
Stream size                              : 50.1 KiB (0%)
Title                                    : SDH
Language                                 : English
Default                                  : No
Forced                                   : No


悠悠MP4_MP4电影下载_朗福勋爵/朗福镇 Longford.2006.1080p.AMZN.WEBRip.DDP2.0.x264-alfaHD 9.53GB悠悠MP4_MP4电影下载_朗福勋爵/朗福镇 Longford.2006.1080p.AMZN.WEBRip.DDP2.0.x264-alfaHD 9.53GB悠悠MP4_MP4电影下载_朗福勋爵/朗福镇 Longford.2006.1080p.AMZN.WEBRip.DDP2.0.x264-alfaHD 9.53GB


提示:如迅雷下载提示"任务出错"、"因版权无法下载",请尝试【迅雷5】
上传的附件:
最新回复 (0)
返回
本站所有资源均收集自互联网,没有提供影片资源存储, 也未参与录制、上传,若本站收录的资源无意侵犯了您的权益, 请联系邮箱:gogoimgs#gmail.com(#=@)