[更早] [欧美] [喜剧] [WEB-1080P] 大人别出声/乌龙戏班 Noises.Off.1992.1080p.AMZN.WEBRip.DDP5.1.x264-alfaHD 10.40GB

uump4 4天前 27

帖子完整标题:大人别出声/乌龙戏班 Noises.Off.1992.1080p.AMZN.WEBRip.DDP5.1.x264-alfaHD 10.40GB


悠悠MP4_MP4电影下载_大人别出声/乌龙戏班 Noises.Off.1992.1080p.AMZN.WEBRip.DDP5.1.x264-alfaHD 10.40GB

◎译  名 大人别出声 / 乌龙戏班 / 勾心斗角 / 糊涂戏班 / 落难戏班(港)
◎片  名 Noises Off
◎年  代 1992
◎产  地 美国
◎类  别 喜剧 / 爱情
◎语  言 英语
◎上映日期 1992-03-20
◎IMDb评分 7.6/10 from 9633 users
◎IMDb链接 https://www.imdb.com/title/tt0105017
◎豆瓣评分 8.1/10 from 1664 users
◎豆瓣链接 https://movie.douban.com/subject/1296043/
◎片  长 101 分钟
◎导  演 Peter Bogdanovich
◎编  剧 Marty Kaplan / 迈克·弗雷恩 Michael Frayn
◎主  演 Carol Burnett
      Michael Caine
      Denholm Elliott
      克里斯托弗·里夫 Christopher Reeve


◎标  签 喜剧 | 美国 | 1992 | 话剧 | 美国电影 | 电影 | 彼得·博格丹诺维奇 | 百老汇

◎简  介

  导演劳埃德(迈克尔·凯恩 Michael Caine 饰)所执导的话剧《一丝不挂》即将上演。在上演的前一天晚上,劳埃德带着他的演员们正在进行最后的排练,因为这是一场以群戏为主的话剧,所以劳埃德不希望他的演员们在舞台上有一丝一毫的失误,可是着八个演员各有各的想法,各有各的个性,想要将他们撮合到一起顺利出演谈何容易。
  首演定在迈阿密,还有三分钟就要正式开始演出了,就在这个节骨眼上,布鲁克因为一点点小事情开始闹情绪,躺在地上不肯起来,而塞尔斯顿索性就失去了踪迹,根据他的尿性,估计又在哪里烂醉如泥了。面对如此状况百出的现场,这场话剧真的能顺利开演吗?
Video
ID : 1
Format : AVC
Format/Info : Advanced Video Codec
Format profile : [email protected]
Format settings : CABAC / 4 Ref Frames
Format settings, CABAC : Yes
Format settings, Reference frames : 4 frames
Codec ID : V_MPEG4/ISO/AVC
Duration : 1 h 43 min
Bit rate mode : Variable
Bit rate : 13.7 Mb/s
Maximum bit rate : 15.0 Mb/s
Width : 1 920 pixels
Height : 1 040 pixels
Display aspect ratio : 1.85:1
Frame rate mode : Constant
Frame rate : 23.976 (24000/1001) FPS
Color space : YUV
Chroma subsampling : 4:2:0
Bit depth : 8 bits
Scan type : Progressive
Bits/(Pixel*Frame) : 0.287
Stream size : 9.94 GiB (96%)
Default : Yes
Forced : No
Color range : Limited
Color primaries : BT.709
Transfer characteristics : BT.709
Matrix coefficients : BT.709

Audio
ID : 2
Format : E-AC-3
Format/Info : Enhanced AC-3
Commercial name : Dolby Digital Plus
Codec ID : A_EAC3
Duration : 1 h 43 min
Bit rate mode : Constant
Bit rate : 640 kb/s
Channel(s) : 6 channels
Channel layout : L R C LFE Ls Rs
Sampling rate : 48.0 kHz
Frame rate : 31.250 FPS (1536 SPF)
Compression mode : Lossy
Stream size : 474 MiB (4%)
Language : English
Service kind : Complete Main
Default : Yes
Forced : No

Text #1
ID : 3
Format : UTF-8
Codec ID : S_TEXT/UTF8
Codec ID/Info : UTF-8 Plain Text
Duration : 1 h 42 min
Bit rate : 99 b/s
Count of elements : 1933
Stream size : 75.4 KiB (0%)
Language : English
Default : No
Forced : No

Text #2
ID : 4
Format : UTF-8
Codec ID : S_TEXT/UTF8
Codec ID/Info : UTF-8 Plain Text
Duration : 1 h 42 min
Bit rate : 108 b/s
Count of elements : 1999
Stream size : 81.7 KiB (0%)
Title : SDH
Language : English
Default : No
Forced : No

悠悠MP4_MP4电影下载_大人别出声/乌龙戏班 Noises.Off.1992.1080p.AMZN.WEBRip.DDP5.1.x264-alfaHD 10.40GB悠悠MP4_MP4电影下载_大人别出声/乌龙戏班 Noises.Off.1992.1080p.AMZN.WEBRip.DDP5.1.x264-alfaHD 10.40GB悠悠MP4_MP4电影下载_大人别出声/乌龙戏班 Noises.Off.1992.1080p.AMZN.WEBRip.DDP5.1.x264-alfaHD 10.40GB


提示:如迅雷下载提示"任务出错"、"因版权无法下载",请尝试【迅雷5】
上传的附件:
最新回复 (0)
返回
本站所有资源均收集自互联网,没有提供影片资源存储, 也未参与录制、上传,若本站收录的资源无意侵犯了您的权益, 请联系邮箱:gogoimgs#gmail.com(#=@)