[更早] [其他] [剧情] [WEB-1080P] 蛇皮 Snakeskin Snakeskin.2001.1080p.AMZN.WEBRip.DDP2.0.x264-alfaHD 3.10GB

uump4 10天前 74

帖子完整标题:蛇皮 Snakeskin Snakeskin.2001.1080p.AMZN.WEBRip.DDP2.0.x264-alfaHD 3.10GB


悠悠MP4_MP4电影下载_蛇皮 Snakeskin Snakeskin.2001.1080p.AMZN.WEBRip.DDP2.0.x264-alfaHD 3.10GB

◎译  名 
◎片  名 蛇皮 Snakeskin
◎年  代 2001
◎产  地 新西兰
◎类  别 剧情 / 惊悚 / 奇幻 / 冒险
◎语  言 英语
◎上映日期 2001-10-11
◎IMDb评分  5.2/10 from 456 users
◎IMDb链接  https://www.imdb.com/title/tt0244803
◎豆瓣评分 0/10 from 0 users
◎豆瓣链接 https://movie.douban.com/subject/2062851/
◎导  演 Gillian Ashurst
◎编  剧 Gillian Ashurst
◎主  演 Melanie Lynskey
       Boyd Kestner
       Dean O'Gorman
       Oliver Driver
       Taika Cohen


◎标  签 电影 | 新西兰 | DeanO'Gorman | 一字年 | NewZealand紐西蘭.梅兰妮·林斯基 | 2001

◎简  介  

  暂无相关剧情介绍

Video
ID                                       : 1
Format                                   : AVC
Format/Info                              : Advanced Video Codec
Format profile                           : [email protected]
Format settings                          : CABAC / 4 Ref Frames
Format settings, CABAC                   : Yes
Format settings, Reference frames        : 4 frames
Codec ID                                 : V_MPEG4/ISO/AVC
Duration                                 : 1 h 29 min
Bit rate mode                            : Variable
Bit rate                                 : 4 763 kb/s
Maximum bit rate                         : 15.0 Mb/s
Width                                    : 1 920 pixels
Height                                   : 1 080 pixels
Display aspect ratio                     : 16:9
Frame rate mode                          : Constant
Frame rate                               : 25.000 FPS
Color space                              : YUV
Chroma subsampling                       : 4:2:0
Bit depth                                : 8 bits
Scan type                                : Progressive
Bits/(Pixel*Frame)                       : 0.092
Stream size                              : 2.96 GiB (95%)
Default                                  : Yes
Forced                                   : No
Color range                              : Limited
Color primaries                          : BT.709
Transfer characteristics                 : BT.709
Matrix coefficients                      : BT.709

Audio
ID                                       : 2
Format                                   : E-AC-3
Format/Info                              : Enhanced AC-3
Commercial name                          : Dolby Digital Plus
Codec ID                                 : A_EAC3
Duration                                 : 1 h 29 min
Bit rate mode                            : Constant
Bit rate                                 : 224 kb/s
Channel(s)                               : 2 channels
Channel layout                           : L R
Sampling rate                            : 48.0 kHz
Frame rate                               : 31.250 FPS (1536 SPF)
Compression mode                         : Lossy
Stream size                              : 143 MiB (4%)
Language                                 : English
Service kind                             : Complete Main
Default                                  : Yes
Forced                                   : No

Text #1
ID                                       : 3
Format                                   : UTF-8
Codec ID                                 : S_TEXT/UTF8
Codec ID/Info                            : UTF-8 Plain Text
Duration                                 : 1 h 24 min
Bit rate                                 : 41 b/s
Count of elements                        : 954
Stream size                              : 25.6 KiB (0%)
Language                                 : English
Default                                  : No
Forced                                   : No

Text #2
ID                                       : 4
Format                                   : UTF-8
Codec ID                                 : S_TEXT/UTF8
Codec ID/Info                            : UTF-8 Plain Text
Duration                                 : 1 h 24 min
Bit rate                                 : 52 b/s
Count of elements                        : 1207
Stream size                              : 32.3 KiB (0%)
Title                                    : SDH
Language                                 : English
Default                                  : No
Forced                                   : No


悠悠MP4_MP4电影下载_蛇皮 Snakeskin Snakeskin.2001.1080p.AMZN.WEBRip.DDP2.0.x264-alfaHD 3.10GB悠悠MP4_MP4电影下载_蛇皮 Snakeskin Snakeskin.2001.1080p.AMZN.WEBRip.DDP2.0.x264-alfaHD 3.10GB悠悠MP4_MP4电影下载_蛇皮 Snakeskin Snakeskin.2001.1080p.AMZN.WEBRip.DDP2.0.x264-alfaHD 3.10GB


提示:如迅雷下载提示"任务出错"、"因版权无法下载",请尝试【迅雷5】
上传的附件:
最新回复 (0)
返回
本站所有资源均收集自互联网,没有提供影片资源存储, 也未参与录制、上传,若本站收录的资源无意侵犯了您的权益, 请联系邮箱:gogoimgs#gmail.com(#=@)