[2012] [欧美] [剧情] [WEB-1080P] 替罪羊/代罪羔羊 The.Scapegoat.2012.1080p.WEBRip.x264-RARBG 2.05GB

uump4 4天前 33

帖子完整标题:替罪羊/代罪羔羊 The.Scapegoat.2012.1080p.WEBRip.x264-RARBG 2.05GB


悠悠MP4_MP4电影下载_替罪羊/代罪羔羊 The.Scapegoat.2012.1080p.WEBRip.x264-RARBG 2.05GB

◎译  名 替罪羊 / 代罪羔羊
◎片  名 The Scapegoat
◎年  代 2012
◎产  地 英国
◎类  别 剧情
◎语  言 英语
◎上映日期 2012-09-09
◎IMDb评分 7.1/10 from 3772 users
◎IMDb链接 https://www.imdb.com/title/tt2084977
◎豆瓣评分 7.4/10 from 2041 users
◎豆瓣链接 https://movie.douban.com/subject/6962981/
◎片  长 103分钟
◎导  演 Charles Sturridge
◎编  剧 Daphne Du Maurier / Charles Sturridge
◎主  演 马修·瑞斯 Matthew Rhys
      艾琳·阿特金斯 Eileen Atkins
      安德鲁·斯科特 Andrew Scott
      乔迪·梅 Jodhi May
      Sheridan Smith


◎标  签 英国 | 剧情 | 英剧 | 英国电影 | 悬疑 | AndrewScott | 2012 | MatthewRhys

◎简  介

  强尼(马修·瑞斯 Matthew Rhys 饰)是富家公子,约翰(马修·瑞斯 Matthew Rhys 饰)则是一个刚刚事业的教书匠,某日,身份和地位悬殊的两人于一间酒吧中相遇,令他们感到震惊的是,他们的相貌竟然一模一样。
  强尼热情的请约翰喝酒,约翰不胜酒力不省人事,当他醒来时,发现自己躺在豪华旅馆的床榻上,而强尼和自己的行李一起不知所踪。就这样,约翰代替强尼成为了大庄园的主人,亦见识到了贵族们埋藏在纸醉金迷华丽表象之下贪婪堕落的生活。善良天真的约翰决定善待周围的每一个人,从自己做起,逐渐改变整个庄园,仅仅凭借他微薄的力量,约翰最终能够成功吗?
Video
ID : 1
Format : AVC
Format/Info : Advanced Video Codec
Format profile : [email protected]
Format settings : CABAC / 4 Ref Frames
Format settings, CABAC : Yes
Format settings, Reference frames : 4 frames
Codec ID : avc1
Codec ID/Info : Advanced Video Coding
Duration : 1 h 47 min
Bit rate : 2 500 kb/s
Width : 1 920 pixels
Height : 812 pixels
Display aspect ratio : 2.35:1
Frame rate mode : Constant
Frame rate : 23.976 (23976/1000) FPS
Color space : YUV
Chroma subsampling : 4:2:0
Bit depth : 8 bits
Scan type : Progressive
Bits/(Pixel*Frame) : 0.067
Stream size : 1.88 GiB (92%)
Writing library : x264 core 152 r2851M ba24899
Encoding settings : cabac=1 / ref=4 / deblock=1:-1:-1 / analyse=0x3:0x113 / me=umh / subme=9 / psy=1 / psy_rd=1.00:0.15 / mixed_ref=1 / me_range=24 / chroma_me=1 / trellis=2 / 8x8dct=1 / cqm=0 / deadzone=21,11 / fast_pskip=1 / chroma_qp_offset=-3 / threads=16 / lookahead_threads=4 / sliced_threads=0 / nr=0 / decimate=1 / interlaced=0 / bluray_compat=0 / constrained_intra=0 / bframes=3 / b_pyramid=2 / b_adapt=2 / b_bias=0 / direct=3 / weightb=1 / open_gop=0 / weightp=2 / keyint=250 / keyint_min=25 / scenecut=40 / intra_refresh=0 / rc_lookahead=50 / rc=2pass / mbtree=1 / bitrate=2500 / ratetol=1.0 / qcomp=0.60 / qpmin=0 / qpmax=69 / qpstep=4 / cplxblur=20.0 / qblur=0.5 / vbv_maxrate=31250 / vbv_bufsize=31250 / nal_hrd=none / filler=0 / ip_ratio=1.40 / aq=3:1.00
Encoded date : UTC 2019-12-03 01:15:14
Tagged date : UTC 2019-12-03 01:15:14
Codec configuration box : avcC

Audio
ID : 2
Format : AAC LC
Format/Info : Advanced Audio Codec Low Complexity
Codec ID : mp4a-40-2
Duration : 1 h 47 min
Duration_LastFrame : -11 ms
Bit rate mode : Constant
Bit rate : 224 kb/s
Channel(s) : 2 channels
Channel layout : L R
Sampling rate : 48.0 kHz
Frame rate : 46.875 FPS (1024 SPF)
Compression mode : Lossy
Stream size : 172 MiB (8%)
Language : English
Default : Yes
Alternate group : 1
Encoded date : UTC 2019-12-03 01:15:14
Tagged date : UTC 2019-12-03 01:15:14

悠悠MP4_MP4电影下载_替罪羊/代罪羔羊 The.Scapegoat.2012.1080p.WEBRip.x264-RARBG 2.05GB悠悠MP4_MP4电影下载_替罪羊/代罪羔羊 The.Scapegoat.2012.1080p.WEBRip.x264-RARBG 2.05GB悠悠MP4_MP4电影下载_替罪羊/代罪羔羊 The.Scapegoat.2012.1080p.WEBRip.x264-RARBG 2.05GB


提示:如迅雷下载提示"任务出错"、"因版权无法下载",请尝试【迅雷5】
上传的附件:
最新回复 (0)
返回
本站所有资源均收集自互联网,没有提供影片资源存储, 也未参与录制、上传,若本站收录的资源无意侵犯了您的权益, 请联系邮箱:gogoimgs#gmail.com(#=@)