[2006] [其他] [剧情] [WEB-1080P] 朗福勋爵/朗福镇 Longford.2006.1080p.WEBRip.x264-RARBG 1.77GB

uump4 4天前 25

帖子完整标题:朗福勋爵/朗福镇 Longford.2006.1080p.WEBRip.x264-RARBG 1.77GB


悠悠MP4_MP4电影下载_朗福勋爵/朗福镇 Longford.2006.1080p.WEBRip.x264-RARBG 1.77GB

◎译  名 朗福勋爵 / 朗福镇
◎片  名 Longford
◎年  代 2006
◎产  地 英国 / 美国
◎类  别 剧情 / 传记 / 犯罪
◎语  言 英语
◎上映日期 2006-10-26(英国)
◎IMDb评分 7.6/10 from 2621 users
◎IMDb链接 https://www.imdb.com/title/tt0759612
◎豆瓣评分 8.0/10 from 483 users
◎豆瓣链接 https://movie.douban.com/subject/2046579/
◎片  长 93分钟
◎导  演 汤姆·霍珀 Tom Hooper
◎编  剧 皮特·摩根 Peter Morgan
◎主  演 李·博德曼 Lee Boardman
      吉姆·布劳德本特 Jim Broadbent
      琳赛·邓肯 Lindsay Duncan
      萨曼莎·莫顿 Samantha Morton
      亚力克斯·布莱克 Alex Blake
      安迪·瑟金斯 Andy Serkis


◎标  签 英国 | 犯罪 | 人性 | 英国电影 | 剧情 | 2006 | 拯救 | HBO

◎简  介

  和蔼善良的弗兰克·朗福勋爵(Jim Broadbent 饰)是英国政府上议院的领袖,同时也是探监慈善基金的积极倡导者。在他的帮助下,无数罪行累累的犯人幡然醒悟,痛改前非,迎来了崭新的人生。就在1965年,一连串令人发指的凶杀案震惊全英。年轻男子伊恩·布莱迪(Andy Serkis 饰)和女友迈拉·欣德丽(Samantha Morton 饰)残忍杀害了数名儿童,其手段之恶毒令人不忍卒睹。二人落网伏法后,分别被判处无期徒刑。此后不久,欣德丽邀请朗福勋爵探监,希望得到帮助。在多次书信和当面交流后,朗福相信欣德丽已真心悔过。虽然面临着来自政府和民众舆论的压力,但他仍决定赌上自己的名誉去为欣德丽争取假释的机会……
  本片根据真实事件改编,并荣获2008年金球奖最佳迷你电视剧集、最佳男主角(Jim Broadbent)和最佳女主角奖(Samantha Morton)。

◎获奖情况

  第65届金球奖(2008)
  电视类 最佳迷你剧/电视电影
  电视类 迷你剧/电视电影最佳男主角 吉姆·布劳德本特
  电视类 最佳男配角(提名) 安迪·瑟金斯
  电视类 最佳女配角 萨曼莎·莫顿

  第8届美国电影学会奖(2007)
  年度佳剧
Video
ID : 1
Format : AVC
Format/Info : Advanced Video Codec
Format profile : [email protected]
Format settings : CABAC / 4 Ref Frames
Format settings, CABAC : Yes
Format settings, Reference frames : 4 frames
Codec ID : avc1
Codec ID/Info : Advanced Video Coding
Duration : 1 h 32 min
Bit rate : 2 500 kb/s
Width : 1 920 pixels
Height : 1 080 pixels
Display aspect ratio : 16:9
Frame rate mode : Constant
Frame rate : 29.970 (29970/1000) FPS
Color space : YUV
Chroma subsampling : 4:2:0
Bit depth : 8 bits
Scan type : Progressive
Bits/(Pixel*Frame) : 0.040
Stream size : 1.62 GiB (91%)
Writing library : x264 core 152 r2851M ba24899
Encoding settings : cabac=1 / ref=4 / deblock=1:-1:-1 / analyse=0x3:0x113 / me=umh / subme=9 / psy=1 / psy_rd=1.00:0.15 / mixed_ref=1 / me_range=24 / chroma_me=1 / trellis=2 / 8x8dct=1 / cqm=0 / deadzone=21,11 / fast_pskip=1 / chroma_qp_offset=-3 / threads=16 / lookahead_threads=4 / sliced_threads=0 / nr=0 / decimate=1 / interlaced=0 / bluray_compat=0 / constrained_intra=0 / bframes=3 / b_pyramid=2 / b_adapt=2 / b_bias=0 / direct=3 / weightb=1 / open_gop=0 / weightp=2 / keyint=250 / keyint_min=25 / scenecut=40 / intra_refresh=0 / rc_lookahead=50 / rc=2pass / mbtree=1 / bitrate=2500 / ratetol=1.0 / qcomp=0.60 / qpmin=0 / qpmax=69 / qpstep=4 / cplxblur=20.0 / qblur=0.5 / vbv_maxrate=31250 / vbv_bufsize=31250 / nal_hrd=none / filler=0 / ip_ratio=1.40 / aq=3:1.00
Encoded date : UTC 2019-12-03 02:09:48
Tagged date : UTC 2019-12-03 02:09:48
Codec configuration box : avcC

Audio
ID : 2
Format : AAC LC
Format/Info : Advanced Audio Codec Low Complexity
Codec ID : mp4a-40-2
Duration : 1 h 32 min
Duration_LastFrame : -11 ms
Bit rate mode : Constant
Bit rate : 224 kb/s
Channel(s) : 2 channels
Channel layout : L R
Sampling rate : 48.0 kHz
Frame rate : 46.875 FPS (1024 SPF)
Compression mode : Lossy
Stream size : 149 MiB (8%)
Language : English
Default : Yes
Alternate group : 1
Encoded date : UTC 2019-12-03 02:09:48
Tagged date : UTC 2019-12-03 02:09:48

悠悠MP4_MP4电影下载_朗福勋爵/朗福镇 Longford.2006.1080p.WEBRip.x264-RARBG 1.77GB悠悠MP4_MP4电影下载_朗福勋爵/朗福镇 Longford.2006.1080p.WEBRip.x264-RARBG 1.77GB悠悠MP4_MP4电影下载_朗福勋爵/朗福镇 Longford.2006.1080p.WEBRip.x264-RARBG 1.77GB


提示:如迅雷下载提示"任务出错"、"因版权无法下载",请尝试【迅雷5】
上传的附件:
最新回复 (0)
返回
本站所有资源均收集自互联网,没有提供影片资源存储, 也未参与录制、上传,若本站收录的资源无意侵犯了您的权益, 请联系邮箱:gogoimgs#gmail.com(#=@)