[更早] [欧美] [喜剧] [BD-Remux] 驯妻记/铁汉雌虎 McLintock.1963.1080p.BluRay.REMUX.AVC.LPCM.2.0-FGT 32.91GB

uump4 9天前 65

帖子完整标题:驯妻记/铁汉雌虎 McLintock.1963.1080p.BluRay.REMUX.AVC.LPCM.2.0-FGT 32.91GB


悠悠MP4_MP4电影下载_驯妻记/铁汉雌虎 McLintock.1963.1080p.BluRay.REMUX.AVC.LPCM.2.0-FGT 32.91GB

◎译  名 驯妻记 / 铁汉雌虎(港)
◎片  名 McLintock!
◎年  代 1963
◎产  地 美国
◎类  别 喜剧 / 爱情 / 西部
◎语  言 英语
◎上映日期 1963-11-13
◎IMDb评分  7.2/10 from 11971 users
◎IMDb链接  https://www.imdb.com/title/tt0057298
◎豆瓣评分 6.7/10 from 56 users
◎豆瓣链接 https://movie.douban.com/subject/1296715/
◎片  长 127 分钟
◎导  演 安德鲁·麦克拉格伦 Andrew V. McLaglen
◎编  剧 詹姆斯·爱德华·格兰特 James Edward Grant
◎主  演 约翰·韦恩 John Wayne
       玛琳·奥哈拉 Maureen O'Hara


◎标  签 喜剧 | 西部片 | 西部 | 美国电影 | 美国 | 1960s | 安德鲁V.麦克拉格伦 | 约翰·韦恩

◎简  介  

  George Washington McLintock, "GW" to friends and foes alike, is a cattle baron and the richest man in the territory. He anxiously awaits the return of his daughter Becky who has been away at school for the last two years. He's also surprised to see that his wife Katherine has also returned. She had left him some years before without really explaining what he done but she does make the point of saying that she's returned to take their daughter back to the State Capitol with her. GW is highly respected by everyone around him including the farmers who are pouring into the territories with free grants of land and the Indians who are under threat of being relocated to another reservation. Between his wife, his headstrong daughter, the crooked land agent and the thieving government Indian agent, GW tries to keep the peace and do what is best for everyone.

Video
ID                                       : 1
Format                                   : AVC
Format/Info                              : Advanced Video Codec
Format profile                           : [email protected]
Format settings                          : CABAC / 4 Ref Frames
Format settings, CABAC                   : Yes
Format settings, Reference frames        : 4 frames
Codec ID                                 : V_MPEG4/ISO/AVC
Duration                                 : 2 h 6 min
Bit rate mode                            : Variable
Bit rate                                 : 34.9 Mb/s
Maximum bit rate                         : 36.0 Mb/s
Width                                    : 1 920 pixels
Height                                   : 1 080 pixels
Display aspect ratio                     : 16:9
Frame rate mode                          : Constant
Frame rate                               : 24.000 FPS
Color space                              : YUV
Chroma subsampling                       : 4:2:0
Bit depth                                : 8 bits
Scan type                                : Progressive
Bits/(Pixel*Frame)                       : 0.700
Stream size                              : 30.8 GiB (94%)
Title                                    : McLintock.1963..1080p.BluRay.REMUX.AVC.LPCM.2.0-FGT
Language                                 : English
Default                                  : No
Forced                                   : No

Audio
ID                                       : 2
Format                                   : PCM
Format settings                          : Little / Signed
Codec ID                                 : A_PCM/INT/LIT
Duration                                 : 2 h 6 min
Bit rate mode                            : Constant
Bit rate                                 : 2 304 kb/s
Channel(s)                               : 2 channels
Sampling rate                            : 48.0 kHz
Frame rate                               : 30.000 FPS (1600 SPF)
Bit depth                                : 24 bits
Stream size                              : 2.04 GiB (6%)
Title                                    : McLintock.1963..1080p.BluRay.REMUX.AVC.LPCM.2.0-FGT
Language                                 : English
Default                                  : Yes
Forced                                   : No

Text
ID                                       : 3
Format                                   : PGS
Muxing mode                              : zlib
Codec ID                                 : S_HDMV/PGS
Codec ID/Info                            : Picture based subtitle format used on BDs/HD-DVDs
Duration                                 : 2 h 6 min
Bit rate                                 : 43.5 kb/s
Count of elements                        : 3576
Stream size                              : 39.3 MiB (0%)
Title                                    : English-PGS
Language                                 : English
Default                                  : Yes
Forced                                   : No

Menu
00:00:00.000                             : en:Chapter 01
00:01:57.708                             : en:Chapter 02
00:12:39.666                             : en:Chapter 03
00:17:10.125                             : en:Chapter 04
00:23:05.000                             : en:Chapter 05
00:27:05.916                             : en:Chapter 06
00:35:29.958                             : en:Chapter 07
00:42:30.333                             : en:Chapter 08
00:45:55.291                             : en:Chapter 09
00:55:01.500                             : en:Chapter 10
01:05:33.166                             : en:Chapter 11
01:16:17.416                             : en:Chapter 12
01:21:41.583                             : en:Chapter 13
01:31:25.125                             : en:Chapter 14
01:38:59.541                             : en:Chapter 15
01:46:08.041                             : en:Chapter 16
01:52:11.291                             : en:Chapter 17
01:59:30.208                             : en:Chapter 18


悠悠MP4_MP4电影下载_驯妻记/铁汉雌虎 McLintock.1963.1080p.BluRay.REMUX.AVC.LPCM.2.0-FGT 32.91GB悠悠MP4_MP4电影下载_驯妻记/铁汉雌虎 McLintock.1963.1080p.BluRay.REMUX.AVC.LPCM.2.0-FGT 32.91GB悠悠MP4_MP4电影下载_驯妻记/铁汉雌虎 McLintock.1963.1080p.BluRay.REMUX.AVC.LPCM.2.0-FGT 32.91GB


提示:如迅雷下载提示"任务出错"、"因版权无法下载",请尝试【迅雷5】
上传的附件:
最新回复 (0)
返回
本站所有资源均收集自互联网,没有提供影片资源存储, 也未参与录制、上传,若本站收录的资源无意侵犯了您的权益, 请联系邮箱:gogoimgs#gmail.com(#=@)