[2018] [欧美] [剧情] [BD-Remux] 孩童杰克/一个杰克这样的孩子 A.Kid.Like.Jake.2018.1080p.BluRay.REMUX.AVC.DTS-HD.MA.5.1-FGT 18.

uump4 9天前 32

帖子完整标题:孩童杰克/一个杰克这样的孩子 A.Kid.Like.Jake.2018.1080p.BluRay.REMUX.AVC.DTS-HD.MA.5.1-FGT 18.07GB


悠悠MP4_MP4电影下载_孩童杰克/一个杰克这样的孩子 A.Kid.Like.Jake.2018.1080p.BluRay.REMUX.AVC.DTS-HD.MA.5.1-FGT 18.

◎译  名 孩童杰克 / 一个杰克这样的孩子
◎片  名 A Kid Like Jake
◎年  代 2018
◎产  地 美国
◎类  别 剧情 / 家庭
◎语  言 英语
◎上映日期 2018-01-23(圣丹斯电影节) / 2018-06-01(美国)
◎IMDb评分  5.3/10 from 2232 users
◎IMDb链接  https://www.imdb.com/title/tt6884200
◎豆瓣评分 6.4/10 from 652 users
◎豆瓣链接 https://movie.douban.com/subject/26983452/
◎片  长 92分钟
◎导  演 Silas Howard
◎编  剧 丹尼尔·珀尔 Daniel Pearle
◎主  演 克莱尔·丹妮丝 Claire Danes
       佩丽冉卡·曹帕拉 Priyanka Chopra
       奥克塔维亚·斯宾瑟 Octavia Spencer
       吉姆·帕森斯 Jim Parsons
       香奈特·芮妮·威尔逊 Shaunette Renée Wilson
       艾米·兰德克 Amy Landecker
       安·唐德 Ann Dowd
       阿西夫·曼德维 Aasif Mandvi
       Julia Taylor Ross
       张欣迪 Cindy Cheung
       Kelly Deadmon
       奥利维亚·邦德 Olivia Bond


◎标  签 家庭 | 美国 | 剧情 | 温情 | 纽约 | 独立 | 教育 | 圣丹斯电影节

◎简  介  

  Alex和Greg对他们年仅四岁却偏爱公主和童话故事的儿子杰克有着很高的期望。当他们发现自己无法承担纽约市私立学校的高昂学费时,杰克的幼儿园老师Judy建议他们利用杰克的心理问题去赢取奖学金。面对来自社会、学校、家庭、教育的令人哭笑不得的多重压力,他们能够接受儿子杰克最本真的自我吗?

Video
ID                                       : 1
Format                                   : AVC
Format/Info                              : Advanced Video Codec
Format profile                           : [email protected]
Format settings                          : CABAC / 2 Ref Frames
Format settings, CABAC                   : Yes
Format settings, Reference frames        : 2 frames
Format settings, GOP                     : M=1, N=5
Codec ID                                 : V_MPEG4/ISO/AVC
Duration                                 : 1 h 29 min
Bit rate mode                            : Variable
Bit rate                                 : 24.1 Mb/s
Maximum bit rate                         : 33.4 Mb/s
Width                                    : 1 920 pixels
Height                                   : 1 080 pixels
Display aspect ratio                     : 16:9
Frame rate mode                          : Constant
Frame rate                               : 23.976 (24000/1001) FPS
Color space                              : YUV
Chroma subsampling                       : 4:2:0
Bit depth                                : 8 bits
Scan type                                : Progressive
Bits/(Pixel*Frame)                       : 0.486
Stream size                              : 15.1 GiB (83%)
Title                                    : A.Kid.Like.Jake.2018.1080p.BluRay.REMUX.AVC.DTS-HD.MA.5.1-FGT
Language                                 : English
Default                                  : No
Forced                                   : No

Audio #1
ID                                       : 2
Format                                   : DTS XLL
Format/Info                              : Digital Theater Systems
Commercial name                          : DTS-HD Master Audio
Codec ID                                 : A_DTS
Duration                                 : 1 h 29 min
Bit rate mode                            : Variable
Bit rate                                 : 3 118 kb/s
Channel(s)                               : 6 channels
Channel layout                           : C L R Ls Rs LFE
Sampling rate                            : 48.0 kHz
Frame rate                               : 93.750 FPS (512 SPF)
Bit depth                                : 24 bits
Compression mode                         : Lossless
Stream size                              : 1.94 GiB (11%)
Title                                    : A.Kid.Like.Jake.2018.1080p.BluRay.REMUX.AVC.DTS-HD.MA.5.1-FGT
Language                                 : English
Default                                  : Yes
Forced                                   : No

Audio #2
ID                                       : 3
Format                                   : DTS XLL
Format/Info                              : Digital Theater Systems
Commercial name                          : DTS-HD Master Audio
Codec ID                                 : A_DTS
Duration                                 : 1 h 29 min
Bit rate mode                            : Variable
Bit rate                                 : 1 664 kb/s
Channel(s)                               : 2 channels
Channel layout                           : L R
Sampling rate                            : 48.0 kHz
Frame rate                               : 93.750 FPS (512 SPF)
Bit depth                                : 24 bits
Compression mode                         : Lossless
Stream size                              : 1.04 GiB (6%)
Title                                    : A.Kid.Like.Jake.2018.1080p.BluRay.REMUX.AVC.DTS-HD.MA.5.1-FGT
Language                                 : English
Default                                  : No
Forced                                   : No

Text #1
ID                                       : 4
Format                                   : UTF-8
Codec ID                                 : S_TEXT/UTF8
Codec ID/Info                            : UTF-8 Plain Text
Duration                                 : 1 h 26 min
Bit rate                                 : 70 b/s
Count of elements                        : 1653
Stream size                              : 44.5 KiB (0%)
Title                                    : English-SRT
Language                                 : English
Default                                  : Yes
Forced                                   : No

Text #2
ID                                       : 5
Format                                   : PGS
Muxing mode                              : zlib
Codec ID                                 : S_HDMV/PGS
Codec ID/Info                            : Picture based subtitle format used on BDs/HD-DVDs
Duration                                 : 1 h 27 min
Bit rate                                 : 42.1 kb/s
Count of elements                        : 2232
Stream size                              : 26.4 MiB (0%)
Title                                    : English-PGS
Language                                 : English
Default                                  : No
Forced                                   : No

Text #3
ID                                       : 6
Format                                   : PGS
Muxing mode                              : zlib
Codec ID                                 : S_HDMV/PGS
Codec ID/Info                            : Picture based subtitle format used on BDs/HD-DVDs
Duration                                 : 1 h 26 min
Bit rate                                 : 37.3 kb/s
Count of elements                        : 1811
Stream size                              : 23.2 MiB (0%)
Title                                    : Spanish-PGS
Language                                 : Spanish
Default                                  : No
Forced                                   : No

Menu
00:00:00.000                             : en:Chapter 01
00:07:51.471                             : en:Chapter 02
00:14:35.082                             : en:Chapter 03
00:21:24.157                             : en:Chapter 04
00:27:28.480                             : en:Chapter 05
00:34:16.763                             : en:Chapter 06
00:43:11.797                             : en:Chapter 07
00:52:58.925                             : en:Chapter 08
01:02:54.937                             : en:Chapter 09
01:12:09.283                             : en:Chapter 10
01:18:33.750                             : en:Chapter 11
01:22:48.838                             : en:Chapter 12
01:29:15.058                             : en:Chapter 13


悠悠MP4_MP4电影下载_孩童杰克/一个杰克这样的孩子 A.Kid.Like.Jake.2018.1080p.BluRay.REMUX.AVC.DTS-HD.MA.5.1-FGT 18.悠悠MP4_MP4电影下载_孩童杰克/一个杰克这样的孩子 A.Kid.Like.Jake.2018.1080p.BluRay.REMUX.AVC.DTS-HD.MA.5.1-FGT 18.悠悠MP4_MP4电影下载_孩童杰克/一个杰克这样的孩子 A.Kid.Like.Jake.2018.1080p.BluRay.REMUX.AVC.DTS-HD.MA.5.1-FGT 18.


提示:如迅雷下载提示"任务出错"、"因版权无法下载",请尝试【迅雷5】
上传的附件:
最新回复 (0)
返回
本站所有资源均收集自互联网,没有提供影片资源存储, 也未参与录制、上传,若本站收录的资源无意侵犯了您的权益, 请联系邮箱:gogoimgs#gmail.com(#=@)